<?xml version="1.0" standalone="no"?>
<!DOCTYPE svg PUBLIC "-//W3C//DTD SVG 1.1//EN" "http://www.w3.org/Graphics/SVG/1.1/DTD/svg11.dtd" >
<svg xmlns="http://www.w3.org/2000/svg">
<metadata>
This is a custom SVG webfont generated by Font Squirrel.
Copyright   : Created by Georg Duffner with FontForge 20 httpfontforgesfnet
</metadata>
<defs>
<font id="webfontEhInBfJ1" horiz-adv-x="561" >
<font-face units-per-em="2048" ascent="1454" descent="-594" />
<missing-glyph horiz-adv-x="409" />
<glyph unicode=" "  horiz-adv-x="409" />
<glyph unicode="&#x09;" horiz-adv-x="409" />
<glyph unicode="&#xa0;" horiz-adv-x="409" />
<glyph unicode="!" horiz-adv-x="552" d="M297 217q51 0 87 -36t36 -87t-36 -87t-87 -36t-87 36t-36 87t36 87t87 36zM190 1174q0 66 28 110.5t81 44.5q49 0 76.5 -45t27.5 -106q0 -63 -8 -155.5t-16 -154.5l-25 -196q-18 -133 -24 -172q-10 -80 -37 -80q-29 0 -37 80q-6 55 -26.5 231t-30 281t-9.5 162z" />
<glyph unicode="&#x22;" horiz-adv-x="632" d="M133 956q6 160 -6 312q-2 41 39 73q57 43 88 43q39 0 25 -106q-25 -164 -93 -317q-20 -51 -39 -52q-14 0 -14 47zM401 956q6 160 -6 312q-2 41 39 73q57 43 88 43q39 0 25 -106q-25 -164 -92 -317q-20 -51 -39 -52q-15 0 -15 47z" />
<glyph unicode="#" horiz-adv-x="958" d="M274 422l-90 -367q-6 -31 -61 -30q-10 0 -17.5 10t-3.5 20l91 363l-130 -6q-10 0 -19 7t-9 17q0 14 3 33.5t15.5 42.5t30.5 23l137 6l70 282l-131 -6q-10 0 -19.5 7t-9.5 18q0 14 3 33.5t15.5 42t30.5 22.5l142 6l86 350q8 35 67 35q10 0 14.5 -11t-0.5 -24l-83 -346 l231 13l88 356q8 35 68 35q10 0 14 -11.5t0 -23.5l-86 -352l121 6q10 0 19 -9.5t7 -19.5q-2 -4 -6 -20.5t-6 -22.5t-7 -18.5t-10 -17.5t-14.5 -10t-19.5 -5l-115 -6l-69 -283l124 6q12 0 20.5 -9t6.5 -19q-2 -4 -6 -20.5t-6 -23t-7 -18.5t-10.5 -17t-14.5 -10.5t-19 -5.5 l-119 -6l-88 -360q-6 -31 -62 -31q-10 0 -17 10.5t-3 20.5l88 356zM305 545l234 12l67 283l-231 -13z" />
<glyph unicode="$" horiz-adv-x="937" d="M541 553l-62 -500q-2 -20 17 -20q119 8 172 68.5t53 201.5q0 68 -59.5 146.5t-112.5 113.5q-4 2 -5 1t-3 -11zM598 752q4 -4 42 -30t51.5 -36t49 -39t52 -47t42 -50t38 -59.5t22.5 -64.5t10 -76q0 -145 -106.5 -267t-315.5 -122q-16 0 -18 -12l-19 -156q-2 -31 -51 -31 q-14 0 -24.5 9.5t-8.5 21.5l21 162q0 14 -12 14q-43 8 -101.5 26.5t-69 20.5t-16.5 5.5t-7 5.5t-3 7t-2 7q-16 35 -38.5 131t-24.5 152q0 12 12 22t29 10q4 0 31.5 -59t79.5 -135t118 -109q4 -2 10 -1t6 5l68 551q0 16 -25 35q-127 88 -197.5 175t-70.5 200q0 106 96 213.5 t269 118.5q20 4 20 12l8 53q6 35 60 35q12 0 20 -11.5t6 -23.5l-8 -53q0 -12 12 -14q29 -2 162 -29q29 -6 37 -45q29 -162 29 -219q0 -14 -6.5 -32.5t-14.5 -18.5q-10 0 -28.5 15t-24.5 36q-43 160 -168 211q-4 2 -7 -2t-3 -9l-58 -464q-2 -8 -2 -12.5t1 -7.5t4.5 -5t5.5 -3 t7 -4t11 -7zM530 1284q-86 -8 -144 -75.5t-58 -149.5q0 -106 145 -217q8 -4 10 -4q8 0 9 8l53 422q-1 16 -15 16z" />
<glyph unicode="%" horiz-adv-x="1505" d="M1126.5 657q-57.5 0 -95.5 -96t-36 -199q2 -125 39 -233.5t100.5 -108.5t96.5 100.5t31 217.5q-2 113 -40 216t-95.5 103zM1149 713q121 0 188.5 -104.5t67.5 -246.5q0 -158 -78 -274.5t-215 -116.5q-125 0 -192.5 107.5t-67.5 261.5q0 143 82 258t215 115zM374.5 1235 q-57.5 0 -95 -96.5t-35.5 -198.5q2 -125 38.5 -233.5t100 -108.5t96.5 100.5t31 216.5q-2 113 -40 216.5t-95.5 103.5zM397 1290q121 0 188.5 -104.5t67.5 -245.5q0 -158 -77.5 -274.5t-215.5 -116.5q-125 0 -192.5 107.5t-67.5 261.5q0 143 82 257.5t215 114.5zM279 -23 l843 1330q23 35 80 34q12 0 22.5 -12t4.5 -22l-844 -1330q-18 -31 -74 -30q-14 0 -27 10t-5 20z" />
<glyph unicode="&#x26;" horiz-adv-x="1613" d="M301 1001q0 102 84 164t197 62q100 0 176 -58.5t76 -152.5q0 -96 -52.5 -169t-146.5 -108l-29 -10l19 -20q25 -29 122 -128.5t144 -168.5l24 -37l33 35q188 199 217 292q8 29 -8 54.5t-49 36.5q-16 5 -16 25q0 9 10 9q39 0 99.5 -4t98.5 -4q41 0 116 13.5t85 13.5 q31 0 17 -24q-12 -21 -35 -23q-127 -16 -221 -117l-322 -344l35 -49q47 -68 64.5 -90.5t56.5 -62.5t80 -53t96 -13q33 0 76 23.5t61 29.5q20 8 31 -2q27 -27 10 -39l-59 -40q-41 -28 -59.5 -39t-55.5 -22.5t-76 -11.5q-106 0 -166.5 50.5t-148.5 187.5l-27 43l-12 -12 q-12 -12 -52 -57.5t-54.5 -58.5t-49.5 -47q-34 -33 -56 -45l-56 -30q-34 -18 -69.5 -24.5t-74.5 -6.5q-141 0 -248.5 75t-109.5 200q-6 295 344 456l41 19l-31 33q-2 2 -22.5 24.5t-28.5 33.5l-27 38q-18 26 -27.5 45.5t-16.5 49t-7 58.5zM492 684l-43 -16q-68 -27 -113 -67 t-64.5 -90t-25.5 -92t-6 -97q0 -92 69.5 -156t165.5 -64q104 0 182 40t158 126l19 19l-25 39q-31 47 -72 95t-117 127l-104 109zM571 770l27 12q113 51 113 228q0 59 -41 109t-103 50q-57 0 -100 -33.5t-43 -84.5q0 -100 117 -246z" />
<glyph unicode="'" horiz-adv-x="399" d="M133 956q6 160 -6 312q-2 41 39 73q57 43 88 43q39 0 25 -106q-25 -164 -93 -317q-20 -51 -39 -52q-14 0 -14 47z" />
<glyph unicode="(" horiz-adv-x="645" d="M82 551q0 240 115.5 490.5t244.5 379.5q23 23 56 23q18 0 36.5 -15.5t2.5 -31.5q-127 -127 -229.5 -354.5t-102.5 -467.5q0 -250 107.5 -544.5t224.5 -411.5q12 -12 -5 -37q-16 -20 -47 -20q-20 0 -34 14q-121 121 -245 426t-124 549z" />
<glyph unicode=")" horiz-adv-x="647" d="M545 575q0 -244 -127 -561t-248 -438q-12 -12 -35 -12q-31 0 -51.5 17.5t0.5 37.5q119 119 228.5 400.5t109.5 527.5q0 242 -103.5 484.5t-226.5 365.5q-20 20 -1.5 32.5t47 12.5t48.5 -21q131 -131 245 -369.5t114 -476.5z" />
<glyph unicode="*" horiz-adv-x="696" d="M545 1249q29 25 55 -6q14 -20 -14 -49l-150 -119q96 -45 168 -86q37 -16 23 -49q-12 -27 -49 -14q-37 16 -96.5 39.5t-82.5 31.5q10 -88 13 -190q0 -43 -33 -45h-2q-31 0 -35 37l-27 188q-55 -39 -161 -102q-29 -25 -56 6q-14 20 15 49l149 119q-96 45 -168 86 q-37 16 -22 49q12 27 49 14q37 -16 96 -39.5t82 -31.5q-10 88 -12 190q0 43 32 45h3q31 0 34 -37l27 -188q56 39 162 102z" />
<glyph unicode="+" horiz-adv-x="1208" d="M676 569q0 -10 1 -11t7 -1h416q12 0 21 -9t5 -20q-8 -25 -13 -36t-18.5 -24t-31.5 -13h-379q-8 0 -8 -9v-413q0 -27 -35 -38t-63 -11q-8 0 -16.5 9t-8.5 19v432q0 10 -8 11h-414q-10 0 -19.5 8t-9.5 16q0 23 12.5 50.5t37.5 27.5h387q14 0 14 16v351q0 29 37 46t57 17 q10 0 19.5 -8t9.5 -18v-392z" />
<glyph unicode="," horiz-adv-x="466" d="M182 59q-45 4 -70.5 28t-25.5 58q0 41 34 68t79 27q74 0 122 -56.5t48 -142.5q0 -141 -99.5 -239.5t-191.5 -102.5h-4q-20 0 -30.5 10t-4.5 21.5t27 15.5q80 16 138 70.5t58 152.5q0 27 -24.5 57.5t-55.5 32.5z" />
<glyph unicode="-" d="M80 348h-8q-12 0 -13 12q10 109 33 111q262 37 393 51q16 0 17 -12q-8 -106 -43 -111q-240 -37 -379 -51z" />
<glyph unicode="." horiz-adv-x="471" d="M235.5 197q47.5 0 80 -33t32.5 -80t-32.5 -80t-80 -33t-80 33t-32.5 80t32.5 80t80 33z" />
<glyph unicode="/" horiz-adv-x="817" d="M61 -96l609 1423q16 35 80 35q12 0 21 -11.5t5 -23.5l-608 -1423q-12 -31 -74 -31q-14 0 -25.5 9.5t-7.5 21.5z" />
<glyph unicode="0" horiz-adv-x="1038" d="M530 762q-125 0 -206.5 -97.5t-81.5 -246.5q0 -141 72.5 -253t191.5 -112q133 0 212 89t79 274q0 137 -72 241.5t-195 104.5zM516 846q182 0 311 -126t129 -304q0 -184 -128 -315.5t-308 -131.5q-182 0 -310 132t-128 317q0 178 128 303t306 125z" />
<glyph unicode="1" horiz-adv-x="591" d="M223 139v543q0 18 -4 32.5t-8 24t-14.5 17.5t-16.5 12t-22 7l-20 4q-5 1 -23.5 4t-20.5 3q-10 0 -13 11.5t1 22.5t12 11q68 0 119 -3t86 -3q33 0 84 3t115 3q18 0 17 -20t-17 -25q-6 -2 -27.5 -5t-31 -6t-25 -10t-22.5 -16.5t-13 -26.5t-6 -40q-6 -264 0 -543 q0 -39 22.5 -58.5t42 -23.5t80.5 -12q16 -2 22.5 -14.5t0.5 -24.5t-23 -12q-63 0 -122.5 5t-96.5 5q-41 0 -104.5 -5t-120.5 -5q-12 0 -18.5 12t-2.5 25.5t21 13.5q31 2 48 5t45 11.5t42 28.5t14 49z" />
<glyph unicode="2" horiz-adv-x="880" d="M623 133q57 0 109 35t81 94q14 25 39 21q16 0 6 -25q-53 -147 -67 -233q-6 -33 -27 -33h-4q-131 8 -367 8q-203 0 -334 -6q-6 0 -9 7t-1 16.5t10 17.5q82 82 125 117q274 225 279 389q2 74 -36 120t-97 46q-150 0 -238 -99q-16 -16 -24 -14q-16 6 -17 29q0 8 11.5 30.5 t39 55t64.5 63.5t96.5 52.5t126.5 21.5q94 0 153.5 -75t59.5 -177q0 -100 -84 -203q-41 -49 -134 -138t-114 -103q-14 -9 10 -16q5 -1 9 -1h334z" />
<glyph unicode="3" horiz-adv-x="761" d="M371 846q100 0 160.5 -58.5t60.5 -154.5q0 -68 -43 -149t-150 -142q-10 -8 2 -12q129 -2 190.5 -71t61.5 -150q0 -289 -336 -455q-86 -43 -141 -43q-18 0 -36.5 9t-18.5 20q0 16 18.5 38.5t36.5 22.5q98 0 137 20q92 49 138.5 114t46.5 200q0 43 -11.5 82t-53.5 75.5 t-111 36.5q-55 0 -127 -41q-10 -6 -23.5 1.5t-11.5 17.5q14 41 63 69q78 47 144 105q82 74 82 217q0 59 -36 97t-96 38q-23 0 -43 -5t-34.5 -9t-34 -17.5t-27.5 -20.5l-30 -25q-22 -18 -29 -25q-20 -16 -25 -15q-27 8 -16 29q37 72 120 136.5t173 64.5z" />
<glyph unicode="4" horiz-adv-x="1007" d="M545 213q25 0 24 16v346q0 4 -8 5.5t-12 -2.5q-111 -113 -311 -347q-12 -18 0 -18h307zM51 115q55 66 416 463l170 194l29 37q20 25 32.5 39t18.5 14h2q6 0 6 -24q0 -121 -4 -307.5t-4 -307.5q0 -12 10 -12q31 -2 82 -2q31 0 121 4q10 0 17 -5t5 -13q-6 -31 -19 -58.5 t-24 -27.5q-14 0 -49 1t-51 1q-31 0 -64 -5q-27 -6 -26 -12v-366q0 -33 -50.5 -66t-68.5 -33q-31 0 -31 27v428q0 8 -13 13t-17 5q-84 0 -222.5 -6t-246.5 -8q-8 0 -15.5 10.5t-3.5 16.5z" />
<glyph unicode="5" horiz-adv-x="768" d="M209 -387q-70 0 -70 25q0 23 68 34q295 51 295 328q0 201 -281 342q-111 55 -102 123q12 139 63 246q23 47 74 67q121 47 299 72h2q23 0 23 -29q0 -41 -33 -94t-72 -61q-113 -23 -250 -27q-20 0 -37 -61q-10 -35 39 -62q221 -123 312 -209q49 -47 88 -122.5t39 -149.5 q0 -186 -144.5 -304t-312.5 -118z" />
<glyph unicode="6" horiz-adv-x="954" d="M475 -29q-193 0 -291 114t-100 304q-2 309 235 588q86 98 233.5 192.5t321.5 139.5h11q10 0 15 -2t3 -9q-12 -23 -53 -41q-268 -117 -414 -323q-182 -262 -182 -545q0 -141 70 -227q33 -41 92 -79t119 -38q82 0 135 43q88 68 88 203q0 96 -56.5 168.5t-136.5 72.5 q-104 0 -164 -30q-18 -8 -22 1t8 21q25 27 55 49q29 23 89.5 45.5t111.5 22.5q106 0 181 -71.5t75 -180.5q0 -174 -110.5 -296t-313.5 -122z" />
<glyph unicode="7" horiz-adv-x="942" d="M705 641q6 8 3 13t-24 8q-240 6 -422 6h-26q-86 0 -123 -47q-37 -45 -53.5 -45.5t-2.5 61.5q25 102 25 172q0 23 20 22q2 0 23.5 -2t52.5 -4t53 -2q59 -2 220 -2q365 0 421 13q6 0 11.5 -12.5t3.5 -18.5q-20 -41 -78 -141l-573 -1002q-31 -55 -39 -55q-23 0 -40.5 15 t-17.5 38q0 8 43 84z" />
<glyph unicode="8" horiz-adv-x="925" d="M543 696q111 90 110 271q0 74 -49 132t-119 58q-76 0 -135 -47t-59 -115q0 -43 8 -74.5t35.5 -64.5t43 -48t68 -55t72.5 -57q13 -9 25 0zM586 645q125 -82 182 -149.5t57 -173.5q0 -145 -112.5 -247t-257.5 -102q-133 0 -231.5 85t-98.5 212q0 59 22.5 109.5t67.5 89.5 t77 60.5t83 48.5q12 10 10 13t-16 13q-72 59 -112 100t-75 109t-35 143q0 111 106.5 180.5t242.5 69.5q119 0 210 -71.5t91 -182.5q0 -102 -99 -186q-33 -29 -102 -80q-25 -18 -25.5 -24.5t15.5 -16.5zM403 535q-51 -41 -73.5 -65t-42 -67t-19.5 -102q0 -100 60.5 -176 t154.5 -76q86 0 142.5 55.5t56.5 137.5q0 135 -225 288q-23 16 -31.5 16.5t-22.5 -11.5z" />
<glyph unicode="9" horiz-adv-x="954" d="M514 848q150 0 254 -119t104 -299q0 -272 -258 -526q-90 -88 -245.5 -179.5t-255.5 -105.5h-11q-18 0 -18 10q0 18 29 27q86 27 229 141.5t211 202.5q156 207 156 465q0 129 -76 219t-187 90q-92 0 -144 -70.5t-52 -156.5q0 -96 60.5 -176t140.5 -80q29 0 54 5t38.5 11 t37 19.5t33.5 17.5q8 2 13.5 -7t1.5 -15q-20 -37 -68 -72q-92 -68 -188 -68q-109 0 -186.5 75t-77.5 183q0 152 114.5 280t290.5 128z" />
<glyph unicode=":" horiz-adv-x="507" d="M256 197q47 0 80 -33t33 -80t-33 -80t-80 -33t-80 33t-33 80t33 80t80 33zM256 764q47 0 80 -34t33 -79t-33 -78.5t-80 -33.5t-80 33.5t-33 78.5t33 79t80 34z" />
<glyph unicode=";" horiz-adv-x="466" d="M217 764q45 0 79 -34t34 -79t-34 -78.5t-79 -33.5t-79 33.5t-34 78.5t34 79t79 34zM182 59q-45 4 -70.5 28t-25.5 58q0 41 34 68t79 27q74 0 122 -56.5t48 -142.5q0 -141 -99.5 -239.5t-191.5 -102.5h-4q-20 0 -30.5 10t-4.5 21.5t27 15.5q80 16 138 70.5t58 152.5 q0 27 -24.5 57.5t-55.5 32.5z" />
<glyph unicode="&#x3c;" horiz-adv-x="1208" d="M272 469l779 -356q25 -12 37 -44t12 -55q0 -8 -7.5 -17t-15.5 -9l-2 1q-2 1 -4 1l-878 409q-84 39 -84 56q0 18 20.5 50t46.5 44l895 409q2 0 3 1l3 2q8 0 16.5 -11.5t4.5 -19.5q-23 -76 -64 -94l-764 -357q-5 -4 2 -10z" />
<glyph unicode="=" horiz-adv-x="1208" d="M152 395h927q12 0 21.5 -9t5.5 -19q-8 -25 -13.5 -36.5t-18.5 -24.5t-32 -13h-911q-10 0 -19.5 7t-9.5 17q0 23 12.5 50.5t37.5 27.5zM152 745h927q12 0 21.5 -9t5.5 -19q-8 -25 -13.5 -36t-18.5 -24.5t-32 -13.5h-911q-10 0 -19.5 8t-9.5 17q0 23 12.5 50t37.5 27z" />
<glyph unicode="&#x3e;" horiz-adv-x="1208" d="M936 479l-778 357q-25 12 -37 43.5t-12 54.5q0 8 7 17.5t15 9.5l2 -2q2 -1 4 -1l879 -409q84 -39 84 -55q0 -18 -20.5 -50t-47.5 -45l-895 -409l-6 -2q-8 0 -16.5 10t-3.5 20q23 76 63 95l764 356q5 4 -2 10z" />
<glyph unicode="?" horiz-adv-x="727" d="M303 217q51 0 87 -36t36 -87t-36 -87t-87 -36t-87 36t-36 87t36 87t87 36zM221 1354q119 0 221 -103q84 -84 137.5 -198.5t53.5 -196.5q0 -125 -86 -172q-100 -55 -176 -104q-61 -39 -66 -162q0 -47 -31 -47q-10 0 -24 17.5t-21 41.5q-27 102 -32 170q-4 51 45 93 t161 100q49 25 87 64.5t38 80.5q0 104 -53 168.5t-153 67.5q-18 0 -47 -4.5t-50 -4.5q-33 0 -59.5 37t-26.5 78q0 29 27.5 51.5t54.5 22.5z" />
<glyph unicode="@" horiz-adv-x="1875" d="M1073 809q-49 0 -126 -51t-149.5 -129t-123.5 -181.5t-51 -193.5q0 -82 65 -82q68 0 187.5 126t210 264t90.5 181q0 27 -32 46.5t-71 19.5zM1192 143q207 0 347 137.5t140 335.5q0 250 -197.5 409t-465.5 159q-225 0 -406.5 -130t-277.5 -336t-96 -435q0 -262 204.5 -457 t481.5 -195q379 0 591 238q16 18 37 18q27 0 17 -22q-8 -23 -54.5 -70t-124 -108.5t-204.5 -105.5t-266 -44q-205 0 -391.5 95.5t-305.5 270.5t-119 384q0 252 120 474t332 357t466 135q305 0 529.5 -173t224.5 -451q0 -260 -210 -419t-503 -155q-33 0 -51.5 37t-10.5 76 q29 133 62 223q13 34 -1 32q-6 -1 -13 -9q-270 -365 -512 -365q-72 0 -72 88q0 100 74.5 238.5t179 254t220.5 197.5t191 82q35 0 74 -32q25 -23 31 -5q20 78 55 78q27 0 48.5 -12t21.5 -29q0 -12 -15 -51l-200 -625q-14 -39 1 -63.5t48 -26.5z" />
<glyph unicode="A" horiz-adv-x="1400" d="M1368 -10q-25 0 -129 6t-156 6q-43 0 -112.5 -1t-89.5 -1q-60 0 -60 23q0 22 68 40q78 20 94 51q9 17 9 44q0 24 -7 57q-35 166 -59 262q-6 23 -58 23h-391q-14 0 -21 -7.5t-14 -29.5l-77 -254q-5 -17 -5 -32q0 -34 24 -61q34 -40 95 -55q68 -18 68 -40.5t-60 -22.5 q-14 0 -78.5 2t-107.5 2q-47 0 -131 -6t-115 -6q-59 0 -59 26q0 25 67 47q123 37 177 158q197 451 383 963l20 61q2 10 3 24.5t2 24t3 9.5q55 18 74 30q10 6 17.5 15.5t11.5 17.5t7 13t7 5q10 0 20 -28l365 -1094q39 -113 86 -152.5t121 -52.5q67 -12 67 -46q0 -21 -59 -21z M682 1110l-184 -492q-4 -9 -4 -16q0 -6 5 -9q9 -5 38 -5h317q23 0 27 5q2 2 2 6q0 7 -4 19l-162 490q-12 37 -19 37q-4 0 -16 -35z" />
<glyph unicode="B" horiz-adv-x="1183" d="M426 836q0 -27 3 -41.5t15.5 -21.5t17.5 -8t25 -3q4 0 14.5 -1t18.5 -1q129 0 228 59q33 18 62.5 67.5t29.5 127.5q0 111 -61.5 190.5t-217.5 79.5q-80 0 -107.5 -21.5t-27.5 -70.5v-356zM365 0q-51 0 -128 -5t-139 -5q-59 0 -59 22q0 25 67 37q82 14 121 49t39 105v921 q0 72 -29.5 104t-107.5 46q-68 12 -68 41q0 23 57 23h2l117.5 -2t96.5 -1q35 0 98.5 5.5t128.5 5.5q231 0 343 -71t112 -235q0 -127 -70 -196q-61 -57 -137 -88q-8 -4 -8 -10.5t8 -10.5q61 -18 100 -36.5t89.5 -56.5t76 -99.5t25.5 -145.5q0 -80 -19.5 -139t-57.5 -98 t-64.5 -57.5t-71.5 -41.5q-137 -69 -323 -69h-5q-12 0 -79.5 4t-114.5 4zM907 387q0 180 -151 264q-92 51 -213 51q-59 0 -94 -22q-18 -12 -23 -51q-2 -48 -2 -117q0 -115 6 -291q4 -76 35 -106q39 -39 123 -39q123 0 221 91t98 220z" />
<glyph unicode="C" horiz-adv-x="1310" d="M1200 281q6 10 16.5 17t21.5 13t13 8.5t4 2.5q8 0 13 -20q2 -10 2 -19t-2 -17q-23 -145 -68 -213q-4 -8 -17.5 -13t-39 -13.5t-43.5 -16.5q-88 -41 -344 -41q-276 0 -469 205t-193 488q0 293 221.5 494.5t524.5 201.5q143 0 216.5 -24.5t155.5 -37.5q23 -2 27 -61 q14 -111 16 -223q2 -16 -3 -32.5t-19 -14.5q-41 4 -53 75q-12 94 -72 150q-104 104 -301 104q-219 0 -363.5 -175t-144.5 -408q0 -170 61.5 -324t183.5 -254t275 -100q254 0 381 248z" />
<glyph unicode="D" horiz-adv-x="1544" d="M760 -14q-6 0 -168 7t-258 7q-37 0 -97.5 -5t-117.5 -5q-59 0 -60 22q0 25 68 37q78 14 107.5 47t29.5 107v921q0 72 -29.5 104t-107.5 46q-68 12 -68 41q0 23 57 23h2q60 -1 117.5 -3t96.5 -2h14q47 0 186.5 8.5t163.5 8.5q397 0 571.5 -173t174.5 -491 q0 -289 -195.5 -494.5t-486.5 -205.5zM1247 709q0 246 -151.5 411.5t-388.5 165.5q-66 0 -99 -1t-73.5 -7t-59 -19.5t-32 -37t-13.5 -60.5v-913q0 -57 17.5 -87t54.5 -59q59 -45 147 -45q18 0 57 2t64 2q150 0 261.5 98.5t163.5 243t52 306.5z" />
<glyph unicode="E" horiz-adv-x="1095" d="M121 1337q78 0 185.5 -3t176.5 -3q109 0 267.5 3t177.5 3h18q35 0 37 -18q23 -119 25 -211q0 -18 -29 -18q-16 0 -23 20q-25 74 -47 100q-49 55 -137 56h-268q-18 0 -41 -19.5t-25 -42.5q-8 -74 -8 -438q0 -45 21 -45h213q90 0 124 80q4 8 17.5 21.5t19.5 13.5 q8 0 18.5 -10.5t8.5 -22.5q-4 -48 -4 -111t4 -141q0 -35 -18 -35q-33 0 -48 47q-23 72 -96 80q-74 12 -125 12q-29 0 -45 -1t-41.5 -6t-38 -18.5t-10.5 -33.5q0 -14 6 -365q2 -80 32 -119.5t97 -39.5h213q16 0 78 12t78 25q39 31 86 129q10 20 29 20q12 -2 20 -8q6 -5 6 -13 q0 -75 -35 -212q-8 -35 -28 -35q-139 0 -356.5 6t-313.5 6q-43 0 -110.5 -6t-125.5 -6q-59 0 -59 22q0 25 68 37q80 14 115.5 48t35.5 106v921q0 72 -29.5 104t-107.5 46q-68 12 -68 41q1 22 60 22z" />
<glyph unicode="F" horiz-adv-x="1048" d="M133 1337q76 0 179.5 -3t172.5 -3q109 0 266.5 3t176.5 3h18q35 0 37 -18q6 -29 10 -205q0 -43 -18 -43q-25 0 -31 25q-25 74 -47 100q-49 55 -137 55h-260q-31 0 -46.5 -16t-18.5 -34.5t-5 -51.5q-2 -51 -2 -192.5t2 -190.5q0 -45 21 -45q47 0 132 3t105 3q90 0 125 80 q4 8 17.5 21.5t19.5 13.5q8 0 18.5 -10.5t8.5 -22.5q-4 -48 -4 -111t4 -141q0 -35 -19 -35q-33 0 -47 47q-27 80 -96 80q-18 0 -52 1t-51 1q-47 0 -133 -4q-49 -4 -49 -51q0 -254 6 -389q4 -70 33 -108t102 -50q68 -12 68 -37q0 -23 -57 -23q-1 0 -2 1q-60 0 -113 7t-88 7 q-49 0 -125 -7t-133 -7q-59 0 -60 22q0 25 68 37q78 14 107.5 48t29.5 108v864q0 98 -25.5 145.5t-99.5 59.5q-67 12 -67 40q0 23 59 23z" />
<glyph unicode="G" horiz-adv-x="1492" d="M1272 1278q22 -151 22 -223v-6q0 -16 -9 -28.5t-21 -12.5q-29 0 -47 55q-23 61 -64 108q-29 37 -114 73t-212 36q-227 0 -379.5 -164t-152.5 -407q0 -168 60.5 -316.5t182 -247t277.5 -98.5q160 0 279 76q49 33 49 158q0 16 2 64q1 32 1 56v21q-1 29 -9 39 q-23 31 -90.5 47t-110.5 16q-10 0 -25.5 10.5t-15.5 24.5t15.5 24.5t25.5 10.5q49 0 125 -4t133 -4q35 0 90 4t92 4q43 0 43 -33q0 -12 -16.5 -23.5t-26.5 -13.5q-43 -12 -61.5 -34.5t-24.5 -65.5q-10 -68 -10 -209q0 -8 12 -33q4 -6 15.5 -17t11.5 -18q0 -23 -29 -36 q-270 -139 -473 -140q-297 0 -511 205t-214 498q0 291 224.5 487.5t529.5 196.5q86 0 255 -30t171 -50z" />
<glyph unicode="H" horiz-adv-x="1658" d="M1397 205q0 -80 19.5 -112t92.5 -44q68 -12 68 -37q0 -23 -57 -23q-1 0 -2 1q-60 0 -117.5 5t-96 5t-100 -5t-119.5 -5q-59 0 -59 22q0 25 68 37q139 27 139 150v389q0 31 -10 30h-783q-10 0 -10 -22v-379q0 -63 45 -109.5t117 -58.5q67 -12 67 -36q0 -23 -54 -23h-5 q-57 0 -125.5 5t-114.5 5q-41 0 -104 -5t-121 -5q-59 0 -59 22q0 25 67 37q74 14 98.5 46t24.5 108v925q0 76 -18.5 105t-89.5 41q-68 12 -68 41q0 23 57 23h3q59 -1 116.5 -4t93.5 -3q39 0 98.5 3t119 3t59.5 -22q0 -29 -68 -41q-139 -25 -139 -146v-393q0 -18 29 -18h760 q14 0 14 24v389q0 119 -135 144q-68 12 -68 41q0 22 55 22h5q57 0 125.5 -3t111.5 -3q33 0 80 3t106.5 3t59.5 -22q0 -29 -68 -41q-70 -12 -89 -44t-19 -100v-925z" />
<glyph unicode="I" horiz-adv-x="696" d="M266 1126q0 72 -29.5 103t-107.5 45q-68 12 -68 41q0 22 55 22h5q57 0 125.5 -3t113.5 -3q41 0 103.5 3t120.5 3q59 0 59 -22q0 -29 -68 -41q-80 -14 -112.5 -46t-32.5 -102v-925q0 -70 40 -104t122 -48q67 -12 67 -36q0 -23 -54 -23h-5q-57 0 -125.5 5t-114.5 5 q-49 0 -126.5 -5t-135.5 -5q-59 0 -59 22q0 25 67 37q82 14 121 48t39 104v925z" />
<glyph unicode="J" horiz-adv-x="614" d="M131 -324q135 0 135 324v1128v9q0 63 -28 92q-29 31 -107 45q-68 12 -68 41q0 22 55 22h5q57 0 125.5 -3t113.5 -3q33 0 83.5 3t109.5 3t59 -22q0 -29 -67 -41q-74 -12 -94.5 -42t-22.5 -104v-837q0 -154 -7 -254t-27.5 -162.5t-32 -83t-41.5 -65.5q-94 -135 -252 -136 q-94 0 -152.5 26t-58.5 60q0 41 23.5 77t49.5 36q68 0 103 -53q39 -60 96 -60z" />
<glyph unicode="K" horiz-adv-x="1394" d="M1350 -10q-61 0 -145.5 5t-139.5 5q-20 0 -67.5 -1t-98.5 -1q-59 0 -59 22.5t55 35t56 38t-29 53.5l-435 480q-35 35 -47 35q-8 0 -8 -44q0 -121 10 -393q6 -154 131 -176q68 -12 68 -37q0 -23 -57 -23q-1 0 -2 1q-60 0 -113 7t-88 7q-49 0 -125 -7t-133 -7q-59 0 -60 22 q0 25 68 37q78 14 107.5 48t29.5 110v921q0 70 -29.5 101t-107.5 45q-68 12 -68 41q0 22 55 22h5q57 0 121.5 -2t107.5 -2q35 0 87.5 2t111.5 2t59 -22q0 -29 -67 -41q-72 -12 -91.5 -45t-19.5 -101v-383q0 -39 10 -38q23 0 56 36l409 418q30 32 30 62v5q-3 32 -38 42 q-63 16 -63 41q0 22 54 22h5h111q229 0 317 8h14q45 0 45 -22q0 -29 -67 -41q-193 -35 -311 -135q-197 -166 -394 -383q-12 -14 11 -37l495 -528q72 -80 106.5 -103.5t118.5 -42.5q68 -14 68 -36.5t-59 -22.5z" />
<glyph unicode="L" horiz-adv-x="1175" d="M430 1161v-964q0 -68 31 -96.5t127 -28.5h299q12 0 51 16t63 37q66 57 107 145q23 61 45 62q14 0 21 -18q4 -10 4 -19q0 -5 -2 -10q-47 -176 -56 -260q-4 -35 -28 -35q-145 0 -377 5t-326 5l-276 -10q-57 0 -58 24q0 23 45 35q84 16 125 49t41 99v950q0 72 -22.5 92.5 t-102.5 34.5q-67 12 -67 40q0 23 54 23h5q57 0 121.5 -3t107.5 -3q49 0 125 3t134 3q59 0 59 -22q0 -29 -68 -41q-49 -8 -73.5 -14.5t-54 -18.5t-42 -31.5t-12.5 -48.5z" />
<glyph unicode="M" horiz-adv-x="1845" d="M1505 1163q0 -170 7.5 -329.5t20.5 -357t17 -281.5q2 -63 39 -97.5t115 -48.5q68 -12 68 -37q0 -22 -55 -22h-5q-57 0 -125.5 5t-113.5 5q-39 0 -97.5 -5t-118 -5t-59.5 22q0 29 68 37q59 8 81.5 41t22.5 107q0 201 -24 753q0 33 -11 33q-6 0 -22 -33l-455 -921 q-23 -49 -35 -49q-10 0 -28 53q-115 344 -367 932q-20 47 -27 0q-49 -360 -65 -752v-6q0 -46 30 -95q33 -51 103 -63q68 -12 68 -37q0 -23 -57 -23q-1 0 -2 1q-60 0 -110.5 5t-83 5t-79.5 -5t-106.5 -5t-59.5 22q0 25 67 37q104 18 127 160q84 631 84 893q0 12 -1 26.5 t-1 20.5q0 29 -30 65q-12 14 -27.5 24.5t-37 18t-36 11.5t-39 9t-30.5 7q-29 10 -29 35q0 23 47 22q41 0 178.5 -8t161.5 -8q16 0 29.5 -34t26 -87t18.5 -69l323 -822q12 -31 25 -30q10 0 23 24l403 840q12 27 20.5 74t16.5 76.5t20 29.5h74q49 0 131 8t96 8h7q43 0 43 -20 q0 -29 -54 -47q-53 -16 -78.5 -24.5t-58.5 -33t-33 -55.5z" />
<glyph unicode="N" horiz-adv-x="1576" d="M1262 1331q45 0 107.5 3t127.5 3q59 0 59 -22q0 -29 -67 -41q-76 -14 -101.5 -37t-27.5 -74q-4 -98 -4 -1147q0 -51 -43 -51q-23 0 -72 34t-94 95q-55 76 -729 897q-27 33 -43 33q-18 0 -19 -43q-10 -506 -10 -768q0 -139 131 -164q68 -12 68 -37q0 -23 -57 -23 q-1 0 -2 1q-60 0 -110 5t-83 5t-80 -5t-106.5 -5t-59.5 22q0 25 68 37q49 8 80.5 68.5t37.5 101.5q31 250 37 813v8q0 98 -48 146q-50 51 -154 84q-64 20 -64 50q0 28 47 28q63 -2 148.5 -6.5t167.5 -4.5q23 0 49 -34q27 -37 384 -487l396 -497q34 -40 50 -40h1q18 0 21 43 q2 63 4 411q1 174 1 279.5t-1 142.5q-2 37 -42 72t-77 41q-68 12 -68 41q0 22 55 22h5h117z" />
<glyph unicode="O" horiz-adv-x="1562" d="M768 1280q-217 0 -347 -168t-130 -395q0 -270 148.5 -468t369.5 -198q225 0 344 152.5t119 421.5q0 299 -131 477t-373 178zM92 655q0 190 79 347t243 257.5t385 100.5q274 0 472.5 -189.5t198.5 -484.5q0 -139 -45 -267t-130 -228.5t-218 -160t-295 -59.5 q-276 0 -483 198.5t-207 485.5z" />
<glyph unicode="P" horiz-adv-x="1130" d="M375 4q-51 0 -131 -7t-135 -7q-59 0 -60 22q0 25 68 37q80 14 114.5 48t34.5 108v864q0 98 -25.5 145.5t-99.5 59.5q-67 12 -67 40q0 24 57 24h3q59 -1 110 -2t90 -1q43 0 123 5.5t104 5.5q238 0 388.5 -102.5t150.5 -301.5q0 -74 -44 -172t-108 -147 q-131 -102 -317 -103q-35 0 -66 6q-50 10 -33 35q8 13 25 12h4q14 -2 41 -2q113 0 189 58q125 96 129 336v6q0 153 -110 235q-112 84 -249 84q-131 0 -131 -86v-977q0 -154 137 -178q68 -12 68 -37q0 -23 -57 -23q-1 0 -2 1q-60 0 -113 7t-88 7z" />
<glyph unicode="Q" horiz-adv-x="1650" d="M784 1282q-219 0 -360 -169q-139 -167 -139 -386v-6q2 -272 175 -484t421 -212q147 0 260.5 101t168 244.5t54.5 293.5q0 244 -168 431t-412 187zM764 -111q-31 25 -120 75t-114 56q-61 16 -133.5 65.5t-142.5 125.5t-116 186.5t-46 231.5q0 307 208 517t523 210 q184 0 349 -71t276 -220.5t111 -347.5q0 -139 -38 -255t-87.5 -186.5t-126 -132t-125.5 -87t-119 -56.5q-40 -18 -40 -38q0 -9 9 -19q84 -90 246 -207q106 -76 177 -102.5t187 -26.5q82 0 115 14q25 8 39 8q23 0 23 -16q0 -31 -37 -53q-117 -68 -240 -68q-242 0 -455 154 q-147 104 -323 243z" />
<glyph unicode="R" horiz-adv-x="1411" d="M430 750v-7q0 -43 22 -55q25 -14 87 -14q125 0 213 80q92 88 92 247q0 51 -11.5 95.5t-39 89.5t-85 71.5t-139.5 26.5q-78 0 -103.5 -28.5t-27.5 -81.5q-4 -98 -8 -424zM1305 -43q-193 0 -283 111l-55 66l-61 74q-15 19 -51 68.5t-69 100.5l-75 117q-31 51 -88 79 q-74 35 -162 45q-16 2 -23.5 -9t-7.5 -31v-353q0 -152 137 -176q68 -12 68 -37q0 -23 -57 -23q-1 0 -2 1q-60 0 -113 7t-88 7q-51 0 -131 -7t-135 -7q-59 0 -60 22q0 25 68 37q80 14 114.5 48t34.5 108v864q0 98 -25.5 145.5t-99.5 59.5q-67 12 -67 40q0 24 57 24h3 q59 -1 110 -2t90 -1q35 0 102.5 5.5t132.5 5.5q223 0 341 -88.5t118 -256.5q0 -61 -30.5 -128.5t-59.5 -96.5q-98 -92 -150 -119q-10 -4 0 -18q6 -10 36 -55l38 -58l35 -51l37 -53l36 -49q25 -35 40 -53l42 -48q25 -30 46 -52l50 -48l56 -53q51 -45 100.5 -56.5t135.5 -11.5 q31 0 30 -22q0 -39 -54 -55.5t-111 -16.5z" />
<glyph unicode="S" horiz-adv-x="952" d="M457 35q111 0 173 74.5t62 187.5q0 92 -75.5 174t-221.5 180q-125 84 -192.5 169t-67.5 198q0 139 117 240.5t295 101.5q57 0 113.5 -10.5t90 -20.5t40.5 -10q25 0 34 -47q2 -10 6.5 -40t9.5 -74q4 -31 4 -57q0 -10 -1 -19q-2 -33 -15 -33q-59 0 -71 57q-14 88 -78 137 t-152 49q-98 0 -166.5 -60.5t-68.5 -160.5q0 -59 51 -125.5t99.5 -102.5t121.5 -83q61 -39 99 -68.5t91.5 -82t81 -117t27.5 -138.5q0 -66 -24.5 -130t-72.5 -123.5t-134 -96.5t-195 -37q-170 0 -274 49q-35 16 -43 35q-33 68 -37 234q-2 14 12.5 37.5t30.5 23.5 q18 0 61 -135q29 -88 101 -132t168 -44z" />
<glyph unicode="T" horiz-adv-x="1372" d="M770 209q0 -131 162 -160q67 -12 67 -36q0 -23 -54 -23h-5q-57 0 -126 5t-114 5q-49 0 -126.5 -5t-135.5 -5q-59 0 -59 22q0 25 67 37q80 14 120 51t40 109v932q0 82 -37 88q-39 8 -151 8h-96q-53 0 -100.5 -20.5t-67.5 -59.5q-12 -25 -38 -51.5t-46 -26.5q-15 0 -15 26 q0 22 11 42q45 94 63 227q6 47 35 47q16 0 51 -65q23 -41 143 -41h781q78 0 118 28q14 10 36 31t37.5 32t29.5 11q8 0 12 -25q2 -12 2 -22t-2 -18q-33 -139 -33 -208v-14q2 -20 -7 -45.5t-25 -25.5q-23 0 -39 84q-16 94 -189 94q-203 0 -276 -8q-33 -4 -33 -88v-932z" />
<glyph unicode="U" horiz-adv-x="1511" d="M1321 1120q-2 -33 -21 -600q-8 -240 -154.5 -394.5t-367.5 -154.5q-283 0 -425 187.5t-142 500.5v461q0 123 -94 150q-68 18 -68 45q0 22 55 22h5q29 0 93 -3t103 -3q35 0 90.5 2t73.5 2q59 0 59 -22q0 -18 -67 -41q-29 -8 -57.5 -50t-28.5 -98v-522q0 -211 127 -369.5 t323 -158.5q190 0 288.5 146.5t98.5 393.5q0 117 -8 433q-4 201 -84 223q-68 18 -68 40q0 23 60 23q31 0 78 -1t76 -1q35 0 90 3t76 3q59 0 59 -22q0 -27 -68 -41q-96 -19 -102 -154z" />
<glyph unicode="V" horiz-adv-x="1376" d="M1096 1331q43 0 127 3t106 3q59 0 60 -22q0 -27 -68 -41q-68 -16 -127 -80t-86 -129l-389 -942q-61 -154 -72 -154q-4 0 -61 146l-357 954q-63 172 -161 201q-68 20 -68 45q0 22 54 22h5q29 0 114 -3t136 -3q47 0 121 2t88 2q60 0 60 -23q0 -22 -68 -40q-61 -14 -90 -80 q-14 -32 -14 -70q0 -41 16 -90l237 -629q20 -57 37 -57q12 0 37 57l268 664q9 21 9 44q0 38 -24 79q-38 65 -85 80q-68 18 -68 40q0 23 60 23q25 0 92.5 -1t110.5 -1z" />
<glyph unicode="W" horiz-adv-x="1875" d="M602 1337q31 0 92.5 -3t100.5 -3q33 0 86 2t71 2q59 0 60 -22q0 -14 -24.5 -27.5t-45 -31t-10.5 -44.5q41 -125 92 -231q12 -27 18.5 -27t18.5 27q41 92 82 231q6 23 -4.5 38.5t-26.5 22.5t-29.5 18t-13.5 24q0 22 54 22h5q33 0 62 -2t45 -2q23 0 59.5 3t61.5 3 q59 0 59 -22q0 -27 -67 -41q-61 -14 -86 -32.5t-54 -65.5q-41 -72 -108 -252q-15 -41 -15 -64q0 -8 2 -14l211 -543q8 -20 23 12q78 207 250 793q12 41 12 73q0 70 -61 89q-68 18 -68 40.5t59 22.5q27 0 74 -1t74 -1q35 0 98.5 3t85.5 3q59 0 60 -22q0 -27 -68 -41 q-109 -25 -168 -180l-330 -975q-51 -143 -65 -144q-18 0 -35 39q-63 143 -147 362.5t-105 270.5q-9 19 -17 0l-5 -12q-115 -268 -234 -604q-23 -63 -45 -64q-6 0 -29 58l-442 1110q-49 106 -147 135q-68 20 -68 45q0 22 54 22h5q31 0 89.5 -3t93.5 -3q43 0 108.5 2t81.5 2 q60 0 60 -23q0 -22 -68 -40q-43 -11 -43 -66q0 -33 15 -81l3 -9q158 -403 336 -805q18 -39 31 -2l160 396q12 37 11 52t-15 54l-117 291q-25 61 -80 106t-115 62q-67 20 -67 44q0 23 59 23z" />
<glyph unicode="X" horiz-adv-x="1447" d="M1133 1331q43 0 125.5 6t107.5 6q59 0 59 -22.5t-67 -40.5q-86 -23 -266 -236l-236 -278q-34 -38 -34 -64q0 -10 5 -18l318 -457q96 -141 219 -174q68 -18 68 -40.5t-60 -22.5q-25 0 -132 6t-161 6q-47 0 -118.5 -1t-92.5 -1q-59 0 -59 22.5t68 40.5q33 10 56 30t33 55 q2 7 2 15q0 29 -26 64l-213 310q-25 35 -45 10l-276 -357q-18 -26 -18 -49q0 -16 10 -31q22 -34 81 -49q68 -18 68 -40.5t-60 -22.5q-14 0 -77.5 2t-104.5 2q-49 0 -138 -6t-120 -6q-59 0 -59 22q0 25 67 45q63 18 149.5 71.5t143.5 125.5l256 319q37 53 37 79q0 8 -4 14 l-297 417q-51 70 -117.5 122t-120.5 69q-67 20 -67 44q0 23 54 23h5q29 0 133.5 -5t159.5 -5q47 0 119 2t84 2q59 0 59 -22q0 -20 -67 -41q-61 -18 -83 -39t-10.5 -54.5t56.5 -97.5l186 -262q20 -31 33 -31q10 0 29 25l219 289q37 49 49 78.5t-7.5 53t-80.5 36.5 q-68 14 -68 41q0 22 55 22h5q23 0 78 -1t88 -1z" />
<glyph unicode="Y" horiz-adv-x="1183" d="M541 221v303q0 23 -4.5 44.5t-11.5 40t-13 29.5t-14.5 23.5t-8.5 14.5l-239 393q-113 180 -182 201q-68 20 -68 45q0 22 54 22h5q27 0 108 -3t132 -3q35 0 90 2t74 2q59 0 59 -22q0 -18 -67 -41q-20 -6 -34.5 -18.5t-22.5 -39.5q-3 -7 -3 -14q0 -23 21 -53l188 -338 q45 -78 58 -78q4 0 9 3t11 10.5t11 15.5t16.5 22.5t19.5 26.5q119 166 172 285q16 34 16 68q0 20 -5 40q-15 55 -58 68q-68 18 -68 40.5t60 22.5q31 0 78 -1t75 -1q41 0 109 3t88 3q59 0 59 -22q0 -27 -67 -41q-82 -16 -205 -197q-109 -166 -227 -368q-37 -63 -44 -92 t-7 -93v-303q0 -70 41.5 -114t119.5 -58q68 -12 68 -37q0 -22 -55 -22h-5q-57 0 -125.5 5t-113.5 5q-49 0 -127 -5t-135 -5q-59 0 -60 22q0 25 68 37q160 29 160 172z" />
<glyph unicode="Z" horiz-adv-x="1234" d="M473 -4q-41 0 -123 -1t-121 -1h-157q-6 0 -9.5 7t-4.5 14l-1 8q0 31 119 190q481 657 701 991q23 31 -31 33q-147 4 -299 4q-158 0 -209 -4q-57 -4 -110.5 -38t-77.5 -103q-27 -66 -58 -66q-18 0 -18 22q0 20 14 56q47 141 55 227q2 35 31 35q14 0 51 -29q23 -16 150 -16 q106 -2 297 -2q246 0 473 6q10 0 19.5 -14.5t2.5 -22.5l-125 -166q-442 -596 -692 -983q-10 -14 -5 -35.5t22 -23.5q98 -10 231 -10q129 0 289 10q172 14 254 207q16 43 45 43q18 0 18 -27q0 -18 -29.5 -133t-46.5 -149q-18 -35 -36 -35q-123 0 -329 3t-290 3z" />
<glyph unicode="[" horiz-adv-x="763" d="M231 1311q0 8 -1 30.5t-1 35t4.5 28.5t16.5 24.5t31 8.5h26l338 -2q14 0 26.5 -9.5t10.5 -21.5q-8 -20 -53 -25q-37 -4 -99 -4q-20 0 -65 1t-74 1q-23 0 -36 -17.5t-13 -41.5q-12 -305 -12 -782q0 -702 2 -779q2 -68 13 -84t46 -16q121 0 238 -10q53 -4 53 -37 q0 -27 -53 -27l-336 6q-39 0 -51.5 11.5t-10.5 50.5l9 1458q0 35 -5.5 97.5t-3.5 103.5z" />
<glyph unicode="\" horiz-adv-x="817" d="M774 -96q4 -12 -7 -21.5t-26 -9.5q-61 0 -73 31l-609 1423q-4 12 5.5 23.5t21.5 11.5q63 0 80 -35z" />
<glyph unicode="]" horiz-adv-x="757" d="M483 1438q18 0 29.5 -7.5t15.5 -24.5t5.5 -28.5t0 -36t-1.5 -30.5q0 -39 -4 -100.5t-4 -100.5l8 -1458q0 -39 -11 -50.5t-50 -11.5l-336 -6q-53 0 -53 27q0 33 53 37q119 10 238 10q35 0 46 16.5t13 83.5q2 100 2 779q0 416 -12 782q-4 59 -49 59q-29 0 -75 -1t-67 -1 q-59 0 -96 4q-47 4 -53 25q-4 12 8 21.5t29 9.5l338 2h26z" />
<glyph unicode="^" horiz-adv-x="1024" d="M512 1235q301 -428 408 -610q8 -14 4 -28.5t-17 -14.5h-4q-55 14 -76 36q-25 28 -71 92l-84 118l-90 134q-54 78 -62 91q-12 14 -20 0q-274 -401 -303 -435q-25 -25 -76 -36h-4q-12 0 -16.5 14t3.5 29q51 88 201 309z" />
<glyph unicode="_" horiz-adv-x="1024" d="M49 -270h948q12 0 21.5 -9.5t5.5 -19.5q-8 -25 -13 -36t-18.5 -24.5t-31.5 -13.5h-932q-10 0 -19.5 8.5t-9.5 16.5q0 23 12 50.5t37 27.5z" />
<glyph unicode="`" horiz-adv-x="571" d="M82 1303q0 23 22.5 40t49.5 17q68 0 102 -55q45 -74 117.5 -206t72.5 -153q0 -27 -26 -26q-23 0 -55 45q-70 96 -142.5 175t-106.5 113t-34 50z" />
<glyph unicode="a" horiz-adv-x="817" d="M236 178q0 -53 32.5 -82.5t67.5 -29.5q59 0 123 55q25 20 24 82l4 100q2 41 -22 41q-4 0 -25 -4q-106 -31 -155 -76t-49 -86zM651 -29q-51 0 -85 27t-48 53.5t-18 26.5q-8 0 -37 -26.5t-85 -53.5t-130 -27q-63 0 -119.5 51.5t-56.5 110.5q0 123 149 184l209 86 q39 16 47 28.5t10 53.5l5 127v6q0 51 -32 90q-34 40 -89 40q-35 0 -74 -21.5t-51 -44.5q-7 -13 -7 -42q0 -4 0.5 -13t0.5 -14q0 -35 -142 -72q-6 -2 -11 4t-6 16t3 23q25 72 80 118q59 53 145 99.5t160 46.5q72 0 121 -54q47 -53 47 -122v-6l-10 -443v-15q0 -142 72 -142h1 q51 0 82 28q10 10 22 1q10 -7 10 -18q0 -3 -1 -7q-6 -18 -59.5 -58.5t-102.5 -40.5z" />
<glyph unicode="b" horiz-adv-x="1054" d="M246 27q-25 0 -58 -27q-12 -8 -31.5 0t-17.5 20q14 104 15 195v944q0 129 -97 150q-15 2 -15 29q0 20 13 22q47 10 87 24.5t84 33t61 24.5l2 1l2 1q12 0 12 -14q0 -2 -2 -33t-3 -81t-1 -102v-419q0 -66 18 -68q109 121 299 121q158 0 263.5 -118t105.5 -286 q0 -195 -119 -334t-338 -139q-76 0 -177 28t-103 28zM578 35q115 0 182 100.5t69 257.5v7q0 131 -75 246q-76 118 -211 118q-49 0 -110.5 -18.5t-92.5 -53.5q-43 -45 -43 -174v-248q0 -104 84 -169.5t197 -65.5z" />
<glyph unicode="c" horiz-adv-x="772" d="M72 369q0 195 123.5 336t308.5 141q166 0 246 -98q9 -12 9 -24q0 -29 -50 -62q-10 -8 -29 -9q-29 0 -49 21q-55 59 -88 77.5t-105 18.5q-106 0 -165.5 -92t-59.5 -215q0 -154 91 -269.5t235 -115.5q61 0 99 23.5t81 78.5q10 10 18 10q10 0 18.5 -10t6.5 -22 q-18 -63 -114.5 -125t-225.5 -62q-152 0 -251 118t-99 280z" />
<glyph unicode="d" horiz-adv-x="1036" d="M692 805q21 -23 25 -15t4 46v323q0 78 -23.5 107.5t-81.5 42.5q-16 4 -16 25.5t14 25.5q63 14 121 35.5t88.5 34t40.5 12.5q12 0 15 -12q0 -6 -3.5 -38t-7.5 -95.5t-4 -145.5v-926q0 -133 43 -133q63 0 94 6t31 -26q0 -29 -28 -29q-106 -14 -240 -70q-25 -12 -49 -12 q-6 0 -6 2q0 10 6 75q5 48 5 68q0 7 -1 11q-37 -57 -106.5 -101.5t-161.5 -44.5q-168 0 -273.5 127t-105.5 291q0 186 127 322.5t333 136.5q41 0 95.5 -15.5t64.5 -27.5zM469 776q-35 0 -73 -15.5t-79 -50t-67.5 -106.5t-26.5 -168q0 -109 34 -187.5t85 -115.5t97 -53.5 t87 -16.5q84 0 139.5 53.5t55.5 129.5v276q0 94 -69.5 174t-182.5 80z" />
<glyph unicode="e" horiz-adv-x="794" d="M449 848q147 0 215.5 -52.5t68.5 -133.5q0 -92 -43 -113q-45 -23 -115 -23h-335q-29 0 -40.5 -13t-11.5 -62q0 -150 87 -251.5t223 -101.5q121 0 184 82q10 10 18 10q10 0 18.5 -10t6.5 -22q-18 -66 -105.5 -126.5t-213.5 -60.5q-137 0 -237.5 123t-100.5 283 q0 184 108.5 327.5t272.5 143.5zM236 651q-9 -13 -9 -27q0 -7 2 -14q7 -20 37 -20h168q96 0 150 10q16 2 16 82q-10 102 -164 102q-128 0 -200 -133z" />
<glyph unicode="f" horiz-adv-x="628" d="M332 973v-109q0 -45 51 -45h242q8 -4 8 -25.5t-8.5 -47t-18.5 -25.5h-192q-20 0 -34.5 -1t-23.5 -4l-14 -5q-6 -2 -8 -9.5t-2 -9.5v-12v-12v-529q2 -63 88 -90q47 -16 47 -37q0 -18 -41 -18h-6q-41 0 -83 5t-77 5t-79 -5t-85 -5h-6q-41 0 -41 18q0 20 47 37q88 27 88 90 v578q-63 0 -106 4q-6 0 -13.5 12t-8.5 22.5t7 14.5q31 8 121 53q0 168 44 295t115 194.5t144.5 100.5t147.5 33q72 0 109.5 -9.5t82.5 -41.5q34 -27 34 -69q0 -18 -7 -40q-14 -45 -63 -45q-16 0 -39 18.5t-43.5 42t-63.5 42t-96 18.5q-100 0 -158.5 -95t-58.5 -294z" />
<glyph unicode="g" horiz-adv-x="890" d="M168 -274q0 -104 70.5 -171t189.5 -67q123 0 213 82t90 207q0 51 -50 86t-114 47q-76 14 -200 20h-48q-25 -16 -102 -94q-49 -57 -49 -110zM410 791q-80 0 -129.5 -77t-49.5 -161q0 -100 54.5 -182t138.5 -82q76 0 128 75.5t52 178.5q0 96 -55 172t-139 76zM748 604 q0 -154 -98.5 -270.5t-246.5 -116.5q-66 0 -110 25q-90 -70 -90 -101q0 -66 196 -84q86 -8 127 -13t105.5 -15.5t95.5 -23.5t66.5 -35.5t49 -53.5t13.5 -74q0 -164 -148.5 -300t-308.5 -136q-154 0 -265 55.5t-111 178.5q0 63 31.5 109t68.5 67q113 74 143 121 q-70 14 -127 52t-57 101q0 39 47 76q12 8 40 24.5t47.5 33t33.5 36.5q-10 2 -36 19.5t-59.5 49t-58 86t-24.5 113.5q0 145 110.5 234.5t253.5 89.5q51 0 122 -22.5t97 -28.5q61 -12 109 -13q14 0 34.5 1.5t30.5 1.5q25 0 43 -3q20 -2 20 -41q0 -32 -20 -32q-41 0 -63.5 -2 t-27.5 -4t-11 -5.5t-14 -5.5q-8 -22 -8 -94z" />
<glyph unicode="h" horiz-adv-x="1054" d="M881 139q0 -66 84 -90q47 -16 47 -37q0 -18 -41 -18h-6q-41 0 -82 5t-76 5t-74 -5t-80 -5h-6q-41 0 -41 18q0 20 47 37q80 25 80 90v418q0 74 -60.5 129t-129.5 55q-113 0 -170 -45q-33 -27 -44.5 -56.5t-11.5 -90.5v-416q2 -61 78 -84q47 -16 47 -37q0 -18 -41 -18h-6 q-41 0 -77.5 5t-71.5 5t-77 -5t-83 -5h-6q-41 0 -41 18q0 20 47 37q27 8 42 15.5t30.5 24.5t15.5 44v1026q0 131 -92 150q-14 2 -15 25.5t13 25.5q51 12 237 82l5 2q4 0 14 -14q0 -4 -4 -30t-9.5 -89.5t-5.5 -159.5v-356q0 -55 17 -76q174 129 309 129q104 0 171 -64.5 t67 -181.5v-463z" />
<glyph unicode="i" horiz-adv-x="501" d="M139 1153q0 45 30 74.5t73 29.5q45 0 74.5 -29.5t29.5 -74.5q0 -43 -29.5 -72.5t-74.5 -29.5q-43 0 -73 29.5t-30 72.5zM328 127q0 -20 6 -33.5t24.5 -23t24.5 -11.5t33 -10q47 -16 47 -37q0 -18 -41 -18h-6q-41 0 -83 5t-77 5t-77 -5t-83 -5h-6q-41 0 -41 18q0 20 47 37 q68 20 81 46q7 14 7 32v444q0 129 -96 150q-16 4 -16 25.5t14 25.5q31 6 57.5 16.5t53 23.5t41.5 22l44 28q29 19 40 25q4 2 10 2q14 0 14 -10q-18 -188 -18 -277v-475z" />
<glyph unicode="j" horiz-adv-x="434" d="M104 1153q0 45 30 74.5t73 29.5q45 0 74.5 -29.5t29.5 -74.5q0 -43 -29.5 -72.5t-74.5 -29.5q-43 0 -73 29.5t-30 72.5zM145 571q0 129 -94 150q-14 2 -15 25.5t13 25.5q31 6 57.5 15.5t53.5 23.5l42 23q15 8 46 28l41 25q2 2 8 2q14 0 14 -10q-16 -188 -16 -316v-377 q0 -328 -62 -497q-37 -100 -117.5 -182t-144.5 -95h-10q-33 0 -33 21q0 23 23 35q84 20 135 129q59 125 59 544v430z" />
<glyph unicode="k" horiz-adv-x="960" d="M686 0h-119q-47 0 -47 18q0 25 47 37q44 13 44 36q0 14 -15 32l-258 297q-4 6 -12.5 3t-8.5 -15q-2 -39 -2 -132q0 -96 2 -143q0 -63 72 -84q47 -16 47 -37q0 -18 -47 -18q-41 0 -74.5 5t-68.5 5t-77 -5t-83 -5q-47 0 -47 18q0 20 47 37q27 8 42 15.5t30.5 24.5t15.5 44 v1026q0 72 -21.5 105.5t-72.5 44.5q-14 2 -15.5 25.5t13.5 25.5q61 14 241 82l3 1l2 1q8 0 12 -14q0 -8 -4 -39t-9.5 -95.5t-5.5 -144.5v-678q0 -18 13 -14q29 6 71 43q184 162 234 231q8 10 -8.5 23.5t-42.5 17.5q-25 8 -25 17q0 29 45 28h101q43 0 116.5 12.5t79.5 12.5 q16 0 17 -15q0 -12 -13.5 -25t-27.5 -18q-59 -12 -144 -63q-47 -29 -262 -217q-23 -18 -6 -35l169 -191q95 -104 132 -137q74 -70 168 -98q47 -16 47 -37q0 -18 -41 -18h-6q-37 0 -116 5t-132 5z" />
<glyph unicode="l" horiz-adv-x="493" d="M317 127q0 -20 6.5 -33.5t25 -23t24.5 -11.5t33 -10q47 -16 47 -37q0 -18 -41 -18h-6q-41 0 -83 5t-77 5t-77 -5t-83 -5h-6q-41 0 -41 18q0 20 47 37q68 20 81 46q7 14 7 32v1032q0 129 -94 150q-14 2 -15.5 25.5t13.5 25.5q51 12 237 82l2 1l2 1q12 0 13 -14 q0 -6 -3 -38t-6.5 -95.5t-3.5 -145.5q0 -170 -1 -492.5t-1 -531.5z" />
<glyph unicode="m" horiz-adv-x="1593" d="M1419 127q0 -20 6.5 -33.5t24.5 -23t24 -11.5l33 -10q47 -16 47 -37q0 -18 -41 -18h-6q-41 0 -85 5t-78.5 5t-78.5 -5t-85 -5h-6q-41 0 -41 18q0 20 47 37q68 20 81 46q7 14 7 32v430q0 76 -49.5 135.5t-114.5 59.5q-109 0 -178 -56q-57 -43 -58 -147v-422q0 -8 1 -16.5 t6.5 -14.5t7.5 -11t10 -9t11 -7t14.5 -6.5t13.5 -4.5t14 -5t15 -4q47 -16 47 -37q0 -18 -41 -18h-6q-41 0 -84 5t-78 5t-79 -5t-85 -5h-6q-41 0 -41 18q0 20 47 37q68 20 82 44q8 14 8 34v430q0 76 -49 135.5t-115 59.5q-109 0 -178 -56q-55 -41 -55 -147v-422 q0 -20 7 -33.5t23.5 -23t24.5 -11.5t33 -10q47 -16 47 -37q0 -18 -41 -18h-6q-41 0 -83 5t-77 5t-77 -5t-83 -5h-6q-41 0 -41 18q0 20 47 37q20 6 25.5 7t22 9.5t21.5 14.5t12 18.5t7 28.5v440q0 63 -16 100.5t-64 47.5q-14 2 -15 25.5t13 25.5q18 4 37 10t32 10.5 t30.5 13.5t26 13t26.5 17l22 15l26 17q20 15 24 17l4 2q4 0 14 -15q0 -8 -4 -49t-5 -66.5t3 -39.5q147 137 324 137q143 0 190 -123q10 -23 20 -23q12 0 39 31q39 45 121 80t174 35q100 0 156.5 -62.5t56.5 -181.5v-477z" />
<glyph unicode="n" horiz-adv-x="1079" d="M571 748q-117 0 -180 -43t-63 -156v-422q0 -20 7 -33.5t23.5 -23t24.5 -11.5t33 -10q47 -16 47 -37q0 -18 -41 -18h-6q-41 0 -83 5t-77 5t-77 -5t-83 -5h-6q-41 0 -41 18q0 20 47 37q20 6 25.5 7t22 9.5t21.5 14.5t12 18.5t7 28.5v440q0 131 -84 148q-16 4 -16 25.5 t14 25.5q106 25 226 113q2 2 4 2q8 0 14 -19q0 -8 -5 -47l-8 -63q-3 -25 1 -39q57 47 154.5 91t183.5 44q104 0 170.5 -63.5t66.5 -180.5v-477q0 -20 6.5 -33.5t24.5 -23t24 -11.5l33 -10q47 -16 47 -37q0 -18 -41 -18h-6q-41 0 -85 5t-78.5 5t-77.5 -5t-84 -5h-6 q-41 0 -41 18q0 20 47 37q68 20 81 46q7 14 7 32v430q0 88 -51.5 139.5t-133.5 51.5z" />
<glyph unicode="o" horiz-adv-x="1013" d="M485 784q-117 0 -180 -82q-65 -81 -65 -266v-6q0 -158 81.5 -277.5t200.5 -119.5q154 0 211 112q41 80 41 242q0 154 -82 275.5t-207 121.5zM520 848q176 0 299 -122t123 -290q0 -193 -122 -329t-341 -136q-174 0 -290.5 117t-116.5 295q0 176 132 320.5t316 144.5z" />
<glyph unicode="p" horiz-adv-x="1062" d="M174 -451v1039q0 35 -24.5 87t-69.5 62q-14 2 -15.5 25.5t13.5 25.5q86 20 237 82l2 1l2 1q8 0 13 -14q0 -10 -4 -46t-6.5 -61.5t2.5 -37.5q39 39 142 87t189 48q152 0 245 -118q91 -116 91 -266v-7q-2 -186 -138 -336t-323 -150q-45 0 -110.5 19.5t-93.5 46.5 q-8 0 -9 -105v-383q0 -16 7.5 -27t24 -20.5t27.5 -13.5t33.5 -9t26.5 -7q47 -16 47 -37q0 -18 -45 -19q-41 0 -99 5.5t-93 5.5t-79 -5.5t-85 -5.5q-43 0 -43 19q0 20 47 37q68 20 81 46q7 13 7 31zM561 35q35 0 77 18.5t86 57.5t73.5 113.5t29.5 170.5q0 111 -29.5 189 t-77.5 111.5t-89 47t-82 13.5q-98 0 -176 -60q-47 -35 -54 -145q-1 -71 -1 -132q0 -107 4 -183q6 -109 49 -150q55 -51 190 -51z" />
<glyph unicode="q" horiz-adv-x="1069" d="M915 -451q0 -12 6.5 -23t12.5 -18.5t20 -13.5l22 -9q7 -3 25.5 -8t20.5 -5q47 -16 47 -37q0 -18 -41 -19h-6q-41 0 -92 5.5t-86 5.5t-77 -5.5t-83 -5.5h-6q-41 0 -41 19q0 20 47 37q68 20 81 46q7 14 7 31v441q0 61 -12 61q-8 0 -19 -10q-80 -70 -260 -70 q-170 0 -289.5 105.5t-119.5 288.5q0 217 140 350t366 133q131 0 198 -23q18 -6 32.5 -12t20 -8t11.5 -2q12 0 21 6t21 25l17 26q2 2 8 2q10 0 22.5 -7t10.5 -15q-25 -104 -25 -236v-1055zM526 782q-119 0 -202.5 -97t-83.5 -265q0 -184 101 -277.5t216 -93.5t176 47 q33 25 41 174v80q0 162 -2 213q-4 92 -75 155.5t-171 63.5z" />
<glyph unicode="r" horiz-adv-x="684" d="M328 541v-404q2 -55 110 -88q47 -16 47 -37q0 -18 -41 -18h-6q-41 0 -89 5t-83 5t-77 -5t-83 -5h-6q-41 0 -41 18q0 20 47 37q27 8 39.5 13.5t25.5 21.5t13 43v440q0 129 -84 148q-14 2 -15 25.5t13 25.5q37 8 74 23.5t58 28.5l52 34l44 27q2 0 2 1t2 1q8 0 12 -15 q0 -55 -6 -153q0 -4 2 -4q4 0 12 10l20 23q11 14 17 18q98 88 188 88q43 0 71 -18.5t28 -47.5q0 -33 -25.5 -69.5t-54.5 -36.5q-16 0 -59 18.5t-64 18.5q-59 0 -101 -39t-42 -133z" />
<glyph unicode="s" horiz-adv-x="661" d="M373 795q-76 0 -109 -43t-33 -97q0 -74 175 -182q51 -33 81.5 -55.5t71.5 -80.5t41 -120q0 -246 -295 -246q-76 0 -141.5 26t-75.5 48q-23 47 -27 125q0 18 35 18q29 0 31 -14q10 -53 65.5 -100t108.5 -47q152 0 152 145q0 51 -35 90t-113 94q-199 141 -199 258 q0 92 72 163t211 71q115 0 162 -47q35 -43 35 -160q0 -8 -13 -8q-16 0 -41.5 15.5t-27.5 27.5q-4 39 -44 79t-87 40z" />
<glyph unicode="t" horiz-adv-x="643" d="M96 721q-6 0 -13 12q-8 14 -8 25q0 8 7 12q76 20 147 92q8 8 21.5 33t26 44t18.5 19q29 0 29 -20v-90q0 -29 45 -29h233q16 0 16 -49t-16 -49h-203h-34q-11 0 -22 -2t-15 -2t-7.5 -8.5t-3.5 -9.5v-15v-20v-388q0 -104 39 -148t97 -44q102 0 153 39q14 11 19 -18 q1 -6 1 -11q0 -8 -3 -12q-18 -31 -92 -71t-146 -40q-98 0 -154.5 60.5t-56.5 183.5v475q0 10 -3 17.5t-12 9.5t-16.5 3t-22.5 1h-24z" />
<glyph unicode="u" horiz-adv-x="1079" d="M885 850h4q14 0 23.5 -12.5t0.5 -24.5q-16 -29 -16 -145v-435q0 -141 37 -141q63 0 94 6t31 -26q0 -29 -29 -29q-106 -14 -239 -70q-25 -12 -50 -12q-6 0 -6 2q0 10 7 75q4 44 4 65q0 9 -1 14q-147 -145 -337 -146q-104 0 -169 63.5t-65 180.5v416q0 82 -88 117 q-27 8 -27 30q0 29 31 35q72 2 211 35q14 2 22.5 -5t6.5 -24q-12 -94 -13 -157v-400q0 -74 53.5 -130t118.5 -56q119 0 173 41q92 68 92 153v375q0 55 -43 77.5t-90 25.5q-47 0 -48 34q0 16 17.5 23.5t30.5 7.5q61 2 98 5t63.5 7t35.5 5t32 8z" />
<glyph unicode="v" horiz-adv-x="897" d="M602 774q-47 16 -47 37q0 18 41 18h6q10 0 56.5 -5t87 -5t69.5 5t45 5h6q41 0 41 -18q0 -20 -47 -37q-33 -10 -69.5 -49t-57.5 -88l-160 -385l-75 -205q-45 -92 -56 -92q-14 0 -41 80l-249 639q-35 82 -95 100q-47 16 -47 37q0 18 41 18h6q41 0 75 -5t69 -5t70.5 5 t76.5 5h6q41 0 41 -18q0 -20 -47 -37q-29 -8 -38 -54q-4 -18 -4 -35q0 -26 9 -50l152 -408q8 -23 12 -22.5t13 20.5l147 379q14 42 14 76q0 20 -5 37q-13 47 -46 57z" />
<glyph unicode="w" horiz-adv-x="1402" d="M1257 639l-280 -672q-6 -14 -19 -14q-8 0 -16 14l-213 529q-12 31 -27 -2l-223 -527q-8 -14 -16 -14q-10 0 -14 14l-285 707q-31 78 -107 100q-47 16 -47 37q0 18 41 18h6q41 0 75 -5t69 -5t79 5t85 5h6q41 0 41 -18q0 -20 -47 -37q-31 -8 -41 -52q-3 -16 -3 -31 q0 -27 11 -52l155 -401q14 -39 31 2l135 329q15 35 15 66q0 35 -19 65q-35 58 -86 74q-47 12 -47 37q0 18 41 18h6q10 0 58.5 -5t89.5 -5q39 0 94 5t72 5h6q41 0 41 -18q0 -20 -47 -37q-20 -6 -31.5 -12t-26 -22.5t-11.5 -39t13 -61.5l154 -395q16 -39 33 -2l155 362 q12 39 12 69q0 27 -9 47q-21 42 -60 54q-47 16 -47 37q0 18 41 18h6q25 0 68 -5t79 -5q41 0 70 5t43 5h6q41 0 41 -18q0 -20 -47 -37q-58 -16 -109 -135z" />
<glyph unicode="x" horiz-adv-x="880" d="M217 686q-43 72 -94 86q-47 12 -47 37q0 18 47 18q37 0 72.5 -4t89.5 -4q25 0 53.5 2t50.5 2q47 0 47 -18q0 -25 -43 -37q-20 -6 -28.5 -16.5t-4 -28.5t22.5 -47l82 -127q10 -18 16 -10l101 153q19 27 19 45q0 24 -30 33q-47 16 -47 37q0 18 47 18q8 0 46 -3t57 -3 q41 0 77.5 5t45.5 5h6q41 0 41 -18q0 -20 -47 -37q-98 -29 -146 -96l-133 -189q-8 -12 2 -26l199 -330q43 -72 94 -86q47 -12 47 -37q0 -18 -41 -18h-6q-37 0 -75 4t-91 4q-25 0 -76 -1t-73 -1q-47 0 -47 18q0 20 47 37q66 19 66 57q0 15 -11 33l-111 189q-10 16 -16 6 l-137 -201q-10 -8 -9 -42t27 -42q47 -16 47 -37q0 -18 -47 -18q-10 0 -50 2t-58 2q-41 0 -81 -5t-50 -5h-7q-41 0 -41 18q0 25 48 37q53 16 137 117l174 217q18 23 4 47z" />
<glyph unicode="y" horiz-adv-x="897" d="M27 -510q0 61 55 61q16 0 44 -6t38 -6q25 0 39 23q94 162 186 405q9 23 9 48q0 28 -11 59l-237 600q-35 84 -93 100q-47 16 -47 37q0 18 41 18h6q41 0 75 -5t69 -5t71.5 5t77.5 5h6q41 0 41 -18q0 -20 -47 -37q-31 -8 -42 -52q-4 -18 -4 -35q0 -25 9 -48l162 -401 q16 -39 31 2l137 364q11 28 11 60q0 21 -5 44q-12 56 -43 66q-47 16 -47 37q0 18 41 18h6q10 0 54.5 -5t85 -5t69.5 5t45 5h6q41 0 41 -18q0 -20 -47 -37q-31 -10 -65.5 -49t-55.5 -88l-278 -664q-2 -6 -34 -81l-79 -191l-84 -201q-37 -84 -133 -84q-39 0 -71.5 20.5 t-32.5 53.5z" />
<glyph unicode="z" horiz-adv-x="772" d="M524 72q41 0 81 39t95 118l7 12q6 11 10 17t12 13.5t16 7.5q16 0 17 -48q0 -29 -57 -213q-2 -8 -11.5 -18t-17.5 -10t-153.5 5t-278.5 5q-31 0 -90.5 -5t-73.5 -5q-8 0 -18.5 13t-10.5 22q0 16 76 118q152 217 381 582q16 20 -19 20h-239q-10 0 -20.5 -5t-21.5 -17 t-20 -23l-22 -32l-23 -31q-2 -2 -10 -13.5t-14 -17.5t-15.5 -13t-15.5 -7q-12 0 -15 16t3 29q35 82 35 184q0 14 11 25.5t19.5 11.5t30.5 -18q14 -12 88 -13q16 0 43 1t35 1q195 0 381 6q8 0 13 -9t1 -15q-41 -49 -78 -103l-395 -600q-6 -10 4 -20t21 -10h239z" />
<glyph unicode="{" horiz-adv-x="763" d="M184 571q63 -16 140 -98t77 -172q0 -57 -13 -170t-13 -184q0 -104 76.5 -155.5t187.5 -51.5q53 0 53 -25q0 -31 -37 -30q-164 0 -288.5 69.5t-124.5 202.5q0 74 13 188.5t13 176.5q0 166 -194 237q-23 8 -23 19q0 6 3 8t9.5 2t10.5 2q195 72 194 237q0 61 -13 176 t-13 189q0 133 125 202.5t288 69.5q37 0 37 -30q0 -25 -53 -25q-111 0 -187.5 -51t-76.5 -156q0 -72 13 -184.5t13 -169.5q0 -92 -70.5 -164t-150.5 -104q-8 -5 4 -9z" />
<glyph unicode="|" horiz-adv-x="532" d="M205 1384q0 29 37 46.5t57 17.5q10 0 19.5 -8t9.5 -19v-1964q0 -27 -35 -38t-64 -11q-8 0 -16 9.5t-8 19.5v1947z" />
<glyph unicode="}" horiz-adv-x="763" d="M580 571q10 4 4 9q-80 33 -151 104.5t-71 163.5q0 57 13.5 169.5t13.5 184.5q0 104 -76.5 155.5t-187.5 51.5q-53 0 -53 25q0 31 37 30q164 0 288.5 -69.5t124.5 -202.5q0 -74 -13 -188.5t-13 -176.5q0 -166 194 -237q2 -2 9.5 -2t10.5 -2t3 -8q0 -10 -23 -19 q-195 -72 -194 -237q0 -61 13 -176t13 -189q0 -133 -125 -202.5t-288 -69.5q-37 0 -37 30q0 25 53 25q111 0 187.5 51t76.5 156q0 72 -13.5 184.5t-13.5 169.5q0 90 77.5 172t140.5 98z" />
<glyph unicode="~" horiz-adv-x="1024" d="M102 571q37 70 115 139.5t141 69.5q43 0 151.5 -49t180.5 -49q43 0 111.5 31.5t93.5 64.5q4 4 6 4q8 0 16.5 -16t4.5 -25q-31 -57 -111 -133t-145 -76q-47 0 -166 49.5t-176 49.5q-35 0 -100.5 -34t-90.5 -62q-4 -4 -13 2t-14.5 17t-3.5 17z" />
<glyph unicode="&#xa2;" horiz-adv-x="843" d="M397 -25q-133 23 -229 142t-96 268q0 176 117.5 309t297.5 150l11 102q4 35 45 35q12 0 20 -11.5t6 -23.5l-10 -100q145 -8 219 -98q31 -39 -41 -86q-16 -8 -26 -9q-33 0 -43 21q-47 84 -117 102l-70 -682q10 -2 31 -2q178 0 236 88q6 10 18 10t21.5 -11t3.5 -21 q-109 -180 -324 -187l-10 -104q-4 -31 -39 -31q-14 0 -24.5 8.5t-8.5 22.5zM410 109l71 677h-4q-117 0 -192.5 -103t-75.5 -228q0 -131 54.5 -221t146.5 -125z" />
<glyph unicode="&#xa3;" horiz-adv-x="1003" d="M266 698q0 145 46 275.5t150.5 222.5t248.5 92q207 0 207 -168q0 -39 -32 -76.5t-55 -37.5q-10 0 -15 3t-7 11t-2 15t1 21.5t1 22.5q-2 51 -46 100.5t-95 49.5q-100 0 -159.5 -140.5t-62.5 -388.5l273 19q12 0 21.5 -9.5t4.5 -19.5q-27 -49 -63 -49l-240 -16 q-14 -125 -68.5 -252t-97.5 -164q-6 -4 -4 -11.5t13 -7.5q129 0 261 -62t226 -62q47 0 82 33.5t35 78.5q0 20 -13.5 52t-13.5 53v15q0 5 2 12t6 10.5t11 3.5q43 -4 69.5 -35t26.5 -74q0 -117 -94.5 -203t-218.5 -86q-94 0 -161 29t-167 98q-82 59 -131 60q-10 0 -40 -32 t-50 -69q-23 -41 -74 -41q-27 0 -44 18.5t-17 45.5q0 35 61 86t135 65q10 2 23 25q55 98 65 401l-172 -12q-10 0 -19.5 7t-9.5 18q0 14 15.5 32.5t34.5 20.5l153 10v10z" />
<glyph unicode="&#xa5;" horiz-adv-x="1267" d="M260 1069q-35 53 -54.5 80t-59.5 70t-68 51q-68 20 -68 45q0 23 60 22q27 0 107.5 -3t131.5 -3q35 0 90.5 2t73.5 2q59 0 59 -22q0 -18 -67 -41q-20 -6 -34.5 -18.5t-23 -40t18.5 -66.5l190 -338q47 -80 62 -80q16 0 63 80q115 168 170 285q25 53 10.5 108t-57.5 68 q-68 18 -67.5 40.5t59.5 22.5q31 0 78 -1t76 -1q41 0 108.5 3t87.5 3q59 0 60 -22q0 -27 -68 -41q-82 -16 -205 -197q-110 -167 -229 -368q-31 -45 -37 -64h250q12 0 21.5 -9t5.5 -20q-23 -43 -64 -43h-223v-98h258q12 0 21.5 -9t4.5 -20q-23 -43 -63 -43h-221v-182 q0 -143 160 -172q68 -12 67 -37q0 -23 -59 -22q-57 0 -126 5t-114 5q-51 0 -129 -5t-133 -5q-59 0 -59 22q0 25 67 37q160 29 160 172l2 182h-258q-10 0 -19.5 7.5t-9.5 17.5q0 14 15.5 30.5t33.5 16.5h238v49q0 20 -4 49h-254q-10 0 -19.5 8.5t-9.5 16.5q0 14 15.5 30.5 t33.5 16.5h217q-14 27 -18 31z" />
<glyph unicode="&#xa9;" horiz-adv-x="1361" d="M708.5 1208q-223.5 0 -381 -157.5t-157.5 -380.5q0 -225 156.5 -388t380.5 -163q225 0 382.5 161.5t157.5 389.5q0 223 -157.5 380.5t-381 157.5zM709 1290q256 0 438 -182t182 -438t-183 -438.5t-439 -182.5t-437.5 182.5t-181.5 438.5t182.5 438t438.5 182zM946 461 q16 31 35 31q10 0 10 -27q0 -18 -14 -55t-27 -50q-45 -45 -215 -45q-143 0 -246.5 108.5t-103.5 248.5q0 147 118 243.5t275 96.5q53 0 109 -13q9 -4 39 -11l38 -9q8 -2 13 -29q6 -57 2 -112q0 -6 -7 -15.5t-14 -7.5q-12 0 -24 31q-16 45 -61.5 74.5t-112.5 29.5 q-102 0 -167 -78.5t-65 -193.5q0 -121 64.5 -211t177.5 -90q135 0 176 84z" />
<glyph unicode="&#xad;" d="M80 348h-8q-12 0 -13 12q10 109 33 111q262 37 393 51q16 0 17 -12q-8 -106 -43 -111q-240 -37 -379 -51z" />
<glyph unicode="&#xae;" horiz-adv-x="690" d="M327.5 1290q-73.5 0 -125.5 -52t-52 -126t52 -126t125.5 -52t126 52t52.5 126t-52.5 126t-126 52zM328 1331q90 0 154.5 -64.5t64.5 -154.5t-64.5 -154.5t-154.5 -64.5t-154.5 64.5t-64.5 154.5t64.5 154.5t154.5 64.5zM360 1161q0 16 -10 30.5t-24 14.5q-23 0 -23 -18 v-47q0 -12 14 -13q16 0 29.5 9.5t13.5 23.5zM219 999q-2 0 -2 9q0 10 2 10q33 12 33 24v127q0 18 -25 27q-2 0 -4 6t-1 13.5t5 7.5q51 12 99 12q39 0 62.5 -17.5t23.5 -46.5q0 -41 -39 -51q-4 0 4 -20.5t22.5 -44t26.5 -31.5q23 -23 23 -25q0 -6 -25 -6q-59 0 -88 88 q-4 12 -21 13q-12 0 -12 -7v-45q0 -16 31 -22q2 -2 2 -11.5t-2 -9.5h-115z" />
<glyph unicode="&#xb4;" horiz-adv-x="782" d="M586 1360q27 0 49 -17.5t22 -39.5q1 -16 -33 -50l-107 -113q-73 -79 -142 -175q-33 -45 -56 -45q-27 0 -26 26q0 20 72.5 152.5t117.5 206.5q33 55 103 55z" />
<glyph unicode="&#x2000;" horiz-adv-x="732" />
<glyph unicode="&#x2001;" horiz-adv-x="1464" />
<glyph unicode="&#x2002;" horiz-adv-x="732" />
<glyph unicode="&#x2003;" horiz-adv-x="1464" />
<glyph unicode="&#x2004;" horiz-adv-x="488" />
<glyph unicode="&#x2005;" horiz-adv-x="366" />
<glyph unicode="&#x2006;" horiz-adv-x="244" />
<glyph unicode="&#x2007;" horiz-adv-x="244" />
<glyph unicode="&#x2008;" horiz-adv-x="183" />
<glyph unicode="&#x2009;" horiz-adv-x="292" />
<glyph unicode="&#x200a;" horiz-adv-x="81" />
<glyph unicode="&#x2010;" d="M80 348h-8q-12 0 -13 12q10 109 33 111q262 37 393 51q16 0 17 -12q-8 -106 -43 -111q-240 -37 -379 -51z" />
<glyph unicode="&#x2011;" d="M80 348h-8q-12 0 -13 12q10 109 33 111q262 37 393 51q16 0 17 -12q-8 -106 -43 -111q-240 -37 -379 -51z" />
<glyph unicode="&#x2012;" d="M80 348h-8q-12 0 -13 12q10 109 33 111q262 37 393 51q16 0 17 -12q-8 -106 -43 -111q-240 -37 -379 -51z" />
<glyph unicode="&#x2013;" horiz-adv-x="1126" d="M152 489h845q10 0 19.5 -9t7.5 -19q-22 -68 -45 -78q-8 -4 -18 -4h-830q-10 0 -19.5 7t-9.5 17q0 25 12.5 55.5t37.5 30.5z" />
<glyph unicode="&#x2014;" horiz-adv-x="1945" d="M152 489h1665q10 0 19 -9t7 -19q-22 -68 -44 -78q-8 -4 -19 -4h-1649q-10 0 -19.5 7t-9.5 17q0 25 12.5 55.5t37.5 30.5z" />
<glyph unicode="&#x2018;" horiz-adv-x="491" d="M268 1053q45 -4 71 -28t26 -58q0 -41 -34 -68t-79 -27q-74 0 -122 56.5t-48 142.5q0 141 99.5 239.5t191.5 102.5h4q20 0 30.5 -10t4.5 -21.5t-27 -15.5q-80 -16 -138.5 -70.5t-58.5 -152.5q0 -27 24.5 -57.5t55.5 -32.5z" />
<glyph unicode="&#x2019;" horiz-adv-x="491" d="M227 1233q-45 4 -70.5 27.5t-25.5 58.5q0 41 34 67.5t79 26.5q74 0 122 -56.5t48 -142.5q0 -141 -99.5 -239t-191.5 -103h-4q-20 0 -30.5 10.5t-4.5 21.5t27 16q80 16 138 70t58 153q0 27 -24.5 57.5t-55.5 32.5z" />
<glyph unicode="&#x201c;" horiz-adv-x="860" d="M268 1053q45 -4 71 -28t26 -58q0 -41 -34 -68t-79 -27q-74 0 -122 56.5t-48 142.5q0 141 99.5 239.5t191.5 102.5h4q20 0 30.5 -10t4.5 -21.5t-27 -15.5q-80 -16 -138.5 -70.5t-58.5 -152.5q0 -27 24.5 -57.5t55.5 -32.5zM633 1053q45 -4 70.5 -28t25.5 -58 q0 -41 -33.5 -68t-79.5 -27q-74 0 -122 56.5t-48 142.5q0 141 99.5 239.5t191.5 102.5h4q20 0 30.5 -10t4.5 -21.5t-26 -15.5q-80 -16 -138.5 -70.5t-58.5 -152.5q0 -27 24.5 -57.5t55.5 -32.5z" />
<glyph unicode="&#x201d;" horiz-adv-x="860" d="M592 1233q-45 4 -70.5 27.5t-25.5 58.5q0 41 33.5 67.5t78.5 26.5q74 0 122 -56.5t48 -142.5q0 -141 -99 -239t-192 -103h-4q-20 0 -30.5 10.5t-4 21.5t26.5 16q80 16 138.5 70t58.5 153q0 27 -24.5 57.5t-55.5 32.5zM227 1233q-45 4 -70.5 27.5t-25.5 58.5q0 41 34 67.5 t79 26.5q74 0 122 -56.5t48 -142.5q0 -141 -99.5 -239t-191.5 -103h-4q-20 0 -30.5 10.5t-4.5 21.5t27 16q80 16 138 70t58 153q0 27 -24.5 57.5t-55.5 32.5z" />
<glyph unicode="&#x2022;" horiz-adv-x="634" d="M317.5 963q94.5 0 160 -66t65.5 -160t-65.5 -159.5t-160 -65.5t-160 65.5t-65.5 159.5t65.5 160t160 66z" />
<glyph unicode="&#x2026;" horiz-adv-x="1400" d="M1169.5 197q47.5 0 80 -33t32.5 -80t-32.5 -80t-80 -33t-80 33t-32.5 80t32.5 80t80 33zM702.5 197q47.5 0 80 -33t32.5 -80t-32.5 -80t-80 -33t-80 33t-32.5 80t32.5 80t80 33zM235.5 197q47.5 0 80 -33t32.5 -80t-32.5 -80t-80 -33t-80 33t-32.5 80t32.5 80t80 33z" />
<glyph unicode="&#x202f;" horiz-adv-x="292" />
<glyph unicode="&#x205f;" horiz-adv-x="366" />
<glyph unicode="&#x20ac;" horiz-adv-x="1361" d="M840 1358q143 0 217 -25q20 -6 80.5 -19.5t74.5 -17.5q23 -6 27 -61q14 -111 16 -223q2 -16 -3 -32.5t-19 -14.5q-16 2 -22.5 14t-12.5 49q-10 90 -90 162q-27 27 -111 57.5t-206 30.5q-186 0 -315.5 -135t-164.5 -334l721 20q12 0 21.5 -9t5.5 -19q-23 -61 -64 -62 l-694 -10q0 -8 -1 -22.5t-1 -22.5q0 -45 6 -88l662 18q12 0 21 -9t5 -19q-23 -61 -63 -62l-611 -8q45 -201 181.5 -333t324.5 -132q119 0 254 76q94 55 121 154q4 10 14.5 18t22.5 13t14 7.5t4 2.5q8 0 12.5 -19.5t0.5 -36.5q-6 -39 -34 -107.5t-50 -103.5q-4 -6 -11.5 -11 t-15.5 -8t-26.5 -11.5t-30.5 -14.5q-88 -41 -344 -41q-240 0 -420 155t-221 388l-142 -2q-10 0 -19 7t-9 18q0 16 14 34.5t35 18.5l110 2q0 8 -1 23.5t-1 21.5q0 46 7 92l-70 -2q-10 0 -19.5 8t-9.5 17q0 16 14.5 34.5t34.5 18.5l64 2q59 242 260 397.5t457 155.5z" />
<glyph unicode="&#x2122;" horiz-adv-x="2072" d="M446 715q0 -80 107 -97q43 -6 43 -28q0 -16 -39 -17h-350q-39 0 -39 17q0 23 45 28q102 16 102 97v534q0 49 -22 54q-20 4 -49 4h-68q-86 0 -108 -39q-27 -47 -56 -47q-8 0 -9 14t7 27q27 53 41 137q4 27 22.5 26t32.5 -24q18 -29 95 -29h444q74 0 96 31q10 14 37 14 q6 0 12.5 -7t4.5 -15q-25 -111 -23 -144q0 -12 -5 -22t-15 -8q-8 0 -12.5 7t-7.5 18t-5 13.5t-5 8.5t-4 9t-5 8q-5 5 -9 7l-11 5q-7 3 -16 5.5t-21.5 3.5t-28.5 1q-109 0 -158 -4q-23 -2 -23 -54v-534zM1106 1184q-12 15 -14 -10v-474q0 -68 86 -82q43 -6 43 -28 q0 -16 -39 -17h-246q-39 0 -39 17q0 23 45 28q43 6 62.5 33t19.5 47v527q0 43 -23 67q-23 23 -83 39q-18 4 -19 29q0 18 31 18h209q18 0 75 -125l211 -432q14 -33 31 -4l242 483q4 6 9 16.5t9 16.5l10 15q6 8 8.5 12t7.5 9t9 7t8 2h197q33 0 33 -18q0 -10 -13.5 -19.5 t-21.5 -11.5q-6 -2 -19.5 -5t-19.5 -5t-16.5 -5t-16.5 -7t-12 -9.5t-8 -11.5t-2 -14v-582q0 -35 22.5 -49t77.5 -23q43 -6 43 -28q0 -16 -39 -17h-309q-39 0 -39 17q0 23 45 28q41 4 54.5 18.5t13.5 55.5v504q0 18 -6.5 18t-14.5 -18l-305 -645l-55 119l-120 258z" />
<glyph unicode="&#xe000;" horiz-adv-x="830" d="M0 830h830v-830h-830v830z" />
<glyph unicode="&#xfb01;" horiz-adv-x="1087" d="M889 139q0 -63 88 -90q47 -16 47 -37q0 -18 -41 -18h-6q-41 0 -83 5t-77 5t-77 -5t-83 -5h-6q-41 0 -41 18q0 20 47 37q88 27 88 90q4 164 -2 432q-4 131 -96 150q-6 2 -110 2q-88 0 -125 -2q-35 -2 -53.5 -5t-25.5 -13.5t-7 -13.5v-21q-2 -139 4 -529q2 -63 88 -90 q47 -16 47 -37q0 -18 -41 -18h-6q-41 0 -83 5t-77 5t-77 -5t-83 -5h-6q-41 0 -41 18q0 20 47 37q86 27 88 90q10 252 0 578q-63 0 -106 4q-6 0 -13.5 12t-8.5 22.5t8 14.5q27 8 47 16q21 9 41 20l32 17q0 174 51.5 303t131.5 194.5t158.5 95.5t154.5 30q125 0 207 -42 t51 -134q-6 -16 -48 -33.5t-77 -17.5q-31 0 -37 14q-59 131 -186 131h-4q-104 -2 -176 -99.5t-80 -291.5q0 -20 -1 -56t-1 -53q0 -12 3 -21t12 -13.5t16.5 -6.5t19.5 -4q133 -14 240 -14q119 0 151 14q24 12 60 36l49 32q25 10 24 -8q-14 -168 -16 -316q0 -23 -1 -95.5 t-1 -115.5q0 -45 1 -117.5t1 -95.5z" />
<glyph unicode="&#xfb02;" horiz-adv-x="1048" d="M858 139q2 -63 88 -90q47 -16 47 -37q0 -18 -41 -18h-6q-41 0 -83 5t-76.5 5t-76.5 -5t-83 -5h-6q-41 0 -41 18q0 20 47 37q86 27 88 90q0 135 1 318.5t1 242.5q0 20 -23 21h-282q-45 0 -64.5 -9.5t-20.5 -15.5t-1 -28q-2 -139 4 -529q2 -63 88 -90q47 -16 47 -37 q0 -18 -41 -18h-6q-41 0 -83 5t-77 5t-77 -5t-83 -5h-6q-41 0 -41 18q0 20 47 37q86 27 88 90q10 252 0 578q-78 0 -120 4q-6 0 -13.5 12t-8.5 22.5t7 14.5q41 10 135 53q2 141 37 253t88.5 179.5t122 112.5t129 61.5t119.5 16.5q63 0 109 -16q25 -4 30 -3q45 25 51 3 q0 -8 -2 -38t-6 -95.5t-4 -145.5q-10 -482 -2 -1012zM717 840q0 43 -1 148.5t-1 170.5q-4 124 -38 166q-31 39 -89 39q-102 0 -175 -98.5t-81 -292.5q0 -20 -1 -56t-1 -53q-2 -25 12 -35t39 -10h317q19 1 19 21z" />
<glyph unicode="&#xfb03;" horiz-adv-x="1585" d="M1085 1366q-104 -2 -173.5 -99.5t-69.5 -291.5q0 -20 1 -57t1 -54q0 -12 3 -21t12 -13.5t15.5 -6.5t20.5 -4q133 -14 240 -14q123 0 151 14q24 12 60 36l49 32q25 10 24 -8q-14 -168 -16 -316q-6 -264 -2 -424q0 -63 88 -90q47 -16 47 -37q0 -18 -41 -18h-6q-41 0 -83 5 t-77 5t-77 -5t-83 -5h-6q-41 0 -41 18q0 20 47 37q88 27 88 90q0 20 1.5 96t1.5 121t-1.5 119t-1.5 96q-4 131 -96 150q-6 2 -110 2q-88 0 -125 -2q-35 -2 -53.5 -5t-25.5 -13.5t-7 -13.5v-21q-2 -139 4 -529q0 -63 88 -90q47 -16 47 -37q0 -18 -41 -18h-6q-41 0 -83 5 t-77 5t-77 -5t-83 -5h-6q-41 0 -41 18q0 20 47 37q88 27 88 90q10 252 0 578q-37 6 -174 6q-102 0 -129 -2q-20 -2 -34.5 -3t-22.5 -5t-14.5 -5t-8.5 -8.5t-2 -8.5v-11v-12v-529q0 -63 88 -90q47 -16 48 -37q0 -18 -41 -18h-7q-41 0 -84 5t-75 5q-35 0 -77 -5t-83 -5h-6 q-41 0 -41 18q0 20 47 37q88 27 88 92v576q-63 0 -106 4q-6 0 -13.5 12t-8.5 22.5t7 14.5q31 8 121 53q0 127 38 227.5t92 156t123 92t121 48t95 11.5q98 0 186 -51q16 -10 25 0q63 70 155.5 104.5t172.5 34.5q190 0 252 -49q53 -45 28 -119q-6 -16 -48 -33.5t-77 -17.5 q-31 0 -37 14q-59 125 -204 125h-9zM553 1278h-10q-33 0 -66 -11.5t-72.5 -40t-64.5 -94t-25 -159.5v-109q-2 -25 12.5 -34t39.5 -11q106 -10 198 -10q106 0 135 14q0 201 64 344q2 8 -2 17q-70 94 -209 94z" />
<glyph unicode="&#xfb04;" horiz-adv-x="1572" d="M1190 1446q70 0 115 -16q25 -4 30 -3q45 25 51 3q0 -8 -3 -39t-6 -95.5t-3 -144.5v-1012q0 -63 88 -90q47 -16 47 -37q0 -18 -41 -18h-6q-41 0 -83 5t-76.5 5t-76.5 -5t-83 -5h-6q-41 0 -41 18q0 20 47 37q88 27 88 90v561q0 20 -23 21h-282q-45 0 -64.5 -9.5 t-20.5 -15.5t-1 -28q-2 -139 4 -527q0 -66 88 -92q47 -16 47 -37q0 -18 -41 -18h-6q-41 0 -83 5t-77 5t-77 -5t-83 -5h-6q-41 0 -41 18q0 20 47 37q88 27 88 90q10 252 0 578q-37 6 -174 6q-102 0 -129 -2q-45 -2 -64.5 -11.5t-20.5 -14.5t-1 -27q-2 -139 4 -527 q0 -66 88 -92q47 -16 48 -37q0 -18 -41 -18h-7q-41 0 -82.5 5t-76.5 5t-77 -5t-83 -5h-6q-41 0 -41 18q0 20 47 37q88 27 88 90q10 252 0 578q-63 0 -106 4q-6 0 -13.5 12t-8.5 22.5t7 14.5q45 12 123 53q0 127 38 227.5t91 157t122 92t121 47t95 11.5q98 0 186 -51 q16 -10 25 0q63 70 160.5 104.5t177.5 34.5zM553 1278h-10q-33 0 -65 -11.5t-69.5 -40t-63.5 -94t-30 -159.5v-109q-2 -25 12.5 -34t39.5 -11q106 -10 198 -10q106 0 135 14q0 201 64 344q2 8 -2 17q-70 94 -209 94zM1231 840q0 43 -1 148.5t-1 170.5q-4 124 -38 166 q-31 39 -89 39q-102 0 -175 -98.5t-81 -292.5q0 -20 -1 -56t-1 -53q-2 -25 12 -35t39 -10h317q19 1 19 21z" />
</font>
</defs>
</svg>
